↑↓Torrent.by
Поиск
Логин: Регистрация
Пароль: Восстановить пароль
Загрузка...

Ничего хорошего в отеле «Эль рояль» / Bad Times at the El Royale (2018) BDRip-AVC от OlLanDGroup | D, P | Лицензия

Скачать nichego-horoshego-v-otele-el-royal-bad-times-at-the-royale-2018-bdrip-avc-ot-ollandgroup-d-p-licenziya.torrent
U Магнитная ссылка Размер: 3.28 GB Раздают: 14 Качают: 14 Добавлен: 2019-02-07 12:03:27
Ничего хорошего в отеле «Эль рояль» / Bad Times at the El Royale (2018) BDRip-AVC от OlLanDGroup | D, P | Лицензия

Ничего хорошего в отеле «Эль рояль» / Bad Times at the El Royale
«All Roads Lead Here»

Год выпуска: 2018
Страна: США
Производство: 20th Century Fox Film Corporation
Жанр:  Триллер, детектив

Режиссёр: Дрю Годдард
В ролях: Крис Хемсворт, Дакота Джонсон, Джефф Бриджес, Синтия Эриво, Джон Хэмм, Кэйли Спэни, Льюис Пуллман, Ксавье Долан, Ник Офферман, Ши Уигхэм, Кэтрин Изабель, Мэнни Хасинто, Марк О`Брайэн, Чарльз Халфорд, Джим О`Хейр, Джерри Нэйрн, Альвина Аугуст, Джонатан Уайтселл, Софиа Локлин Херт

Перевод: Дублированный | [Лицензия], Профессиональный (многоголосый, закадровый) | [HDRezka Studio]
Субтитры: Русские (форс., полные), Украинские (форс.), Английские (полные, SDH)
Реклама: Отсутствует

Описание: 1969 год. Группа разношерстных личностей останавливается на ночь в когда-то популярном отеле «Эль Рояль», расположенном на границе штатов Невада и Калифорния. В здании отеля собрались неприветливый священник, певица Дарлин, энергичный продавец пылесосов и подозрительная девушка с Юга. Вместе с ними ночь в отеле проводит молодой консьерж. Каждому из них есть что скрывать, и у каждого из них будет шанс искупить прошлые грехи. Но ситуация только осложняется, когда в «Эль Рояль» появляется зловещий, но обаятельный лидер культа, желающий получить свое.

Качество: BDRip-AVC | BDRemux | Bad.Times.at.the.El.Royale.2018.REMUX.1080p.BluRay.AVC.DTS-HD.MA.7.1-iFT
Продолжительность: 02:21:37

Формат: MKV
Видео кодек: MPEG-4 AVC
Аудио кодек: AC3
Видео: 1024x428 (2.40:1), 23,976 fps, x264 ~1 773 kbps avg, 0.169 bit/pixel
Аудио #1: 48 kHz, AC3 Dolby Digital, 3/2 (L,C,R,l,r) + LFE ch, ~448.00 kbps avg | RUS (Лицензия)
Аудио #2: 48 kHz, AC3 Dolby Digital, 2 (L,R) ch, ~192.00 kbps avg | RUS (HDRezka Studio)
Аудио #3: 48 kHz, AC3 Dolby Digital, 3/2 (L,C,R,l,r) + LFE ch, ~448.00 kbps avg | UKR
Аудио #3: 48 kHz, AC3 Dolby Digital, 3/2 (L,C,R,l,r) + LFE ch, ~448.00 kbps avg | ENG

Дата премьеры (мир): 27 сентября 2018
Дата премьеры (РФ): 11 октября 2018, «Двадцатый Век Фокс СНГ»
Цифровой релиз: 28 декабря 2018, «Двадцатый Век Фокс СНГ»

Релиз: Rip by:


[+] MediaInfo

Общее
Уникальный идентификатор                 : 217590670617423545049569224089158450352 (0xA3B2705641287D0E813E350CBBA67CB0)
Полное имя                               : F:OlLanDGroupBad.Times.at.the.El.Royale.2018.BDRip(AVC).OlLanDGroup.mkv
Формат                                   : Matroska
Версия формата                           : Version 4 / Version 2
Размер файла                             : 3,28 Гбайт
Продолжительность                        : 2 ч. 21 м.
Общий поток                              : 3311 Кбит/сек
Название фильма                          : Bad Times at the El Royale (2018)   #TorpedoUK#
Дата кодирования                         : UTC 2019-02-07 03:37:46
Программа кодирования                    : mkvmerge v29.0.0 ('Like It Or Not') 64-bit
Библиотека кодирования                   : libebml v1.3.6 + libmatroska v1.4.9

Видео
Идентификатор                            : 1
Формат                                   : AVC
Формат/Информация                        : Advanced Video Codec
Профиль формата                          : High@L4.1
Параметр CABAC формата                   : Да
Параметр ReFrames формата                : 10 кадров
Идентификатор кодека                     : V_MPEG4/ISO/AVC
Продолжительность                        : 2 ч. 21 м.
Битрейт                                  : 1773 Кбит/сек
Ширина                                   : 1024 пикселя
Высота                                   : 428 пикселей
Соотношение сторон                       : 2,40:1
Режим частоты кадров                     : Постоянный
Частота кадров                           : 23,976 (24000/1001) кадра/сек
Цветовое пространство                    : YUV
Субдискретизация насыщенности            : 4:2:0
Битовая глубина                          : 8 бит
Тип развёртки                            : Прогрессивная
Бит/(Пиксели*Кадры)                      : 0.169
Размер потока                            : 1,75 Гбайт (54%)
Библиотека кодирования                   : x264 core 146 r2538 121396c
Настройки программы                      : cabac=1 / ref=10 / deblock=1:-3:-3 / analyse=0x3:0x113 / me=umh / subme=11 / psy=1 / psy_rd=1.00:0.03 / mixed_ref=1 / me_range=48 / chroma_me=1 / trellis=2 / 8x8dct=1 / cqm=0 / deadzone=21,11 / fast_pskip=1 / chroma_qp_offset=-3 / threads=6 / lookahead_threads=1 / sliced_threads=0 / nr=0 / decimate=1 / interlaced=0 / bluray_compat=0 / constrained_intra=0 / bframes=11 / b_pyramid=2 / b_adapt=2 / b_bias=0 / direct=3 / weightb=1 / open_gop=0 / weightp=2 / keyint=240 / keyint_min=23 / scenecut=40 / intra_refresh=0 / rc_lookahead=40 / rc=2pass / mbtree=0 / bitrate=1773 / ratetol=1.0 / qcomp=0.60 / qpmin=0 / qpmax=69 / qpstep=4 / cplxblur=20.0 / qblur=0.5 / vbv_maxrate=50000 / vbv_bufsize=62500 / nal_hrd=none / filler=0 / ip_ratio=1.40 / pb_ratio=1.30 / aq=1:1.00
Язык                                     : English
Default                                  : Да
Forced                                   : Нет

Аудио #1
Идентификатор                            : 2
Формат                                   : AC-3
Формат/Информация                        : Audio Coding 3
Расширение режима                        : CM (complete main)
Параметр Endianness формата              : Big
Идентификатор кодека                     : A_AC3
Продолжительность                        : 2 ч. 21 м.
Вид битрейта                             : Постоянный
Битрейт                                  : 448 Кбит/сек
Каналы                                   : 6 каналов
Расположение каналов                     : Front: L C R, Side: L R, LFE
Частота                                  : 48,0 КГц
Частота кадров                           : 31,250 кадров/сек (1536 spf)
Битовая глубина                          : 16 бит
Метод сжатия                             : С потерями
Размер потока                            : 454 Мбайт (14%)
Заголовок                                : DUB [License]
Язык                                     : Russian
Default                                  : Да
Forced                                   : Нет

Аудио #2
Идентификатор                            : 3
Формат                                   : AC-3
Формат/Информация                        : Audio Coding 3
Расширение режима                        : CM (complete main)
Параметр Endianness формата              : Big
Идентификатор кодека                     : A_AC3
Продолжительность                        : 2 ч. 21 м.
Вид битрейта                             : Постоянный
Битрейт                                  : 192 Кбит/сек
Каналы                                   : 2 канала
Расположение каналов                     : Front: L R
Частота                                  : 48,0 КГц
Частота кадров                           : 31,250 кадров/сек (1536 spf)
Битовая глубина                          : 16 бит
Метод сжатия                             : С потерями
Размер потока                            : 195 Мбайт (6%)
Заголовок                                : MVO [HDRezka Studio]
Язык                                     : Russian
Default                                  : Нет
Forced                                   : Нет

Аудио #3
Идентификатор                            : 4
Формат                                   : AC-3
Формат/Информация                        : Audio Coding 3
Расширение режима                        : CM (complete main)
Параметр Endianness формата              : Big
Идентификатор кодека                     : A_AC3
Продолжительность                        : 2 ч. 21 м.
Вид битрейта                             : Постоянный
Битрейт                                  : 448 Кбит/сек
Каналы                                   : 6 каналов
Расположение каналов                     : Front: L C R, Side: L R, LFE
Частота                                  : 48,0 КГц
Частота кадров                           : 31,250 кадров/сек (1536 spf)
Битовая глубина                          : 16 бит
Метод сжатия                             : С потерями
Размер потока                            : 454 Мбайт (14%)
Заголовок                                : [License]
Язык                                     : Ukrainian
Default                                  : Нет
Forced                                   : Нет

Аудио #4
Идентификатор                            : 5
Формат                                   : AC-3
Формат/Информация                        : Audio Coding 3
Расширение режима                        : CM (complete main)
Параметр Endianness формата              : Big
Идентификатор кодека                     : A_AC3
Продолжительность                        : 2 ч. 21 м.
Вид битрейта                             : Постоянный
Битрейт                                  : 448 Кбит/сек
Каналы                                   : 6 каналов
Расположение каналов                     : Front: L C R, Side: L R, LFE
Частота                                  : 48,0 КГц
Частота кадров                           : 31,250 кадров/сек (1536 spf)
Битовая глубина                          : 16 бит
Метод сжатия                             : С потерями
Размер потока                            : 454 Мбайт (14%)
Заголовок                                : [Original]
Язык                                     : English
Default                                  : Нет
Forced                                   : Нет

Текст #1
Идентификатор                            : 6
Формат                                   : UTF-8
Идентификатор кодека                     : S_TEXT/UTF8
Идентификатор кодека/Информация          : UTF-8 Plain Text
Продолжительность                        : 2 ч. 17 м.
Битрейт                                  : 0 бит/сек
Count of elements                        : 11
Размер потока                            : 329 байт (0%)
Заголовок                                : Forced
Язык                                     : Russian
Default                                  : Да
Forced                                   : Нет

Текст #2
Идентификатор                            : 7
Формат                                   : UTF-8
Идентификатор кодека                     : S_TEXT/UTF8
Идентификатор кодека/Информация          : UTF-8 Plain Text
Продолжительность                        : 2 ч. 17 м.
Битрейт                                  : 57 бит/сек
Count of elements                        : 1316
Размер потока                            : 57,6 Кбайт (0%)
Заголовок                                : Full
Язык                                     : Russian
Default                                  : Нет
Forced                                   : Нет

Текст #3
Идентификатор                            : 8
Формат                                   : UTF-8
Идентификатор кодека                     : S_TEXT/UTF8
Идентификатор кодека/Информация          : UTF-8 Plain Text
Продолжительность                        : 2 ч. 11 м.
Битрейт                                  : 0 бит/сек
Count of elements                        : 14
Размер потока                            : 525 байт (0%)
Заголовок                                : Forced
Язык                                     : Ukrainian
Default                                  : Нет
Forced                                   : Нет

Текст #4
Идентификатор                            : 9
Формат                                   : UTF-8
Идентификатор кодека                     : S_TEXT/UTF8
Идентификатор кодека/Информация          : UTF-8 Plain Text
Продолжительность                        : 2 ч. 13 м.
Битрейт                                  : 41 бит/сек
Count of elements                        : 1467
Размер потока                            : 40,5 Кбайт (0%)
Заголовок                                : Full
Язык                                     : English
Default                                  : Нет
Forced                                   : Нет

Текст #5
Идентификатор                            : 10
Формат                                   : UTF-8
Идентификатор кодека                     : S_TEXT/UTF8
Идентификатор кодека/Информация          : UTF-8 Plain Text
Продолжительность                        : 2 ч. 18 м.
Битрейт                                  : 45 бит/сек
Count of elements                        : 1711
Размер потока                            : 46,2 Кбайт (0%)
Заголовок                                : SDH
Язык                                     : English
Default                                  : Нет
Forced                                   : Нет

Меню
00:00:00.000                             : en:Chapter 1
00:04:19.592                             : en:Chapter 2
00:19:21.994                             : en:Chapter 3
00:34:32.779                             : en:Chapter 4
00:49:24.711                             : en:Chapter 5
00:51:19.868                             : en:Chapter 6
01:16:01.473                             : en:Chapter 7
01:37:13.369                             : en:Chapter 8
02:03:56.720                             : en:Chapter 9
02:14:09.041                             : en:Chapter 10
02:15:45.428                             : en:Chapter 11



Скриншоты:
[+] Всего файлов в раздаче - 1:
Bad.Times.at.the.El.Royale.2018.BDRip(AVC).OlLanDGroup.mkv3.28 GB

Показать еще раздачи по запросу ничего:
2019-02-09 U Ничего хорошего в отеле «Эль рояль» / Bad Times at the El Royale (2018) BDRip 720p от Scarabey | Лицензия 6.14 GB ↑ 38 ↓ 17
2019-02-07 U Ничего хорошего в отеле «Эль рояль» / Bad Times at the El Royale (2018) BDRip-AVC от HELLYWOOD | Лицензия 1.46 GB ↑ 92 ↓ 38
2019-02-07 U Ничего хорошего в отеле «Эль рояль» / Bad Times at the El Royale (2018) BDRip от MegaPeer | Лицензия 795.69 MB ↑ 70 ↓ 9
2019-02-07 U Ничего хорошего в отеле «Эль рояль» / Bad Times at the El Royale (2018) BDRip-AVC от ExKinoRay | Лицензия, P 3.12 GB ↑ 39 ↓ 7
2019-02-07 U Ничего хорошего в отеле «Эль рояль» / Bad Times at the El Royale (2018) BDRip-AVC от HELLYWOOD | Лицензия 2.91 GB ↑ 20 ↓ 14
2019-02-07 U Ничего хорошего в отеле «Эль рояль» / Bad Times at the El Royale (2018) BDRip 720p от селезень | Лицензия 7.14 GB ↑ 11 ↓ 30
2019-02-07 U Ничего хорошего в отеле «Эль рояль» / Bad Times at the El Royale (2018) BDRip от MegaPeer | Лицензия 2.18 GB ↑ 1 ↓ 28

Отзывы
Зарегистрируйтесь чтобы добавить комментарий.
Обратная связь
Copyleft ©