↑↓Torrent.by
Поиск
Логин: Регистрация
Пароль: Восстановить пароль
Загрузка...

Интервью с Богом / An Interview with God (2018) WEB-DL 1080p от OlLanDGroup | HDRezka Studio

Скачать intervyu-s-bogom-an-interview-with-god-2018-web-dl-1080p-ot-ollandgroup-hdrezka-studio.torrent
U Магнитная ссылка Размер: 3.75 GB Раздают: 32 Качают: 32 Добавлен: 2019-02-07 12:03:30
Интервью с Богом / An Interview with God (2018) WEB-DL 1080p от OlLanDGroup | HDRezka Studio

Интервью с Богом / An Interview with God
«Оказавшись перед Ним, что Ему скажешь?»

Год выпуска: 2018
Страна: США
Производство: Astute Films, Big Indie Pictures, Giving Films
Жанр:  Драма, детектив

Режиссёр: Перри Лэнг
В ролях: Брентон Туэйтс, Дэвид Стрэтэйрн, Яэль Гробглас, Хилл Харпер, Чарлби Дин Крик, Бобби Ди Чикко, Миган Кимберли Смит

Перевод: Профессиональный многоголосый | [HDRezka Studio]
Субтитры: Английские (SDH)
Реклама: Отсутствует

Описание: Сюжет разворачивается вокруг перспективного журналиста Пола Ашера, который вернулся домой из Афганистана, где он работал военным корреспондентом. Возвращение главного героя домой приводит к проблемам личного характера, среди которых неудачный брак, отсутствие веры и последствия работы в зоне боевых действий. Стараясь справиться со своими неурядицами, Пол не забывает присматривать за другом, который вернулся из Афганистана вместе с ним и нуждается в помощи. Рутинная жизнь журналиста кардинально меняется, когда у него появляется шанс взять интервью у человека, называющего себя Богом.

Качество: WEB-DL 1080p | AMZN Version |
Продолжительность: 01:37:12

Формат: MKV
Видео кодек: MPEG-4 AVC
Аудио кодек: AC3
Видео: 1920x800 (2.40:1), 23,976 fps, x264 ~4 688 kbps avg, 0.127 bit/pixel
Аудио #1: 48 kHz, AC3 Dolby Digital, 2 (L,R) ch, ~192.00 kbps avg | RUS (HDRezka Studio)
Аудио #2: 48 kHz, E-AC3 Dolby Digital Plus, 3/2 (L,C,R,l,r) + LFE ch, ~640.00 kbps avg | ENG

Дата премьеры (мир): 21 августа 2018
Дата премьеры (РФ): 17 января 2019, «Кинологистика»
Цифровой релиз: 18 февраля 2019, «НД Плэй»

Релиз: Rip by:


[+] MediaInfo

Общее
Уникальный идентификатор                 : 283099755700068209061887925799418996877 (0xD4FB0798CA5AE8C597CABE3AECBA288D)
Полное имя                               : F:OlLanDGroupAn.Interview.with.God.2018.WEB-DL(1080p).OlLanDGroup.mkv
Формат                                   : Matroska
Версия формата                           : Version 4 / Version 2
Размер файла                             : 3,75 Гбайт
Продолжительность                        : 1 ч. 37 м.
Общий поток                              : 5523 Кбит/сек
Название фильма                          : An.Interview.with.God.2018   #TorpedoUK#
Дата кодирования                         : UTC 2019-02-06 15:43:23
Программа кодирования                    : mkvmerge v29.0.0 ('Like It Or Not') 64-bit
Библиотека кодирования                   : libebml v1.3.6 + libmatroska v1.4.9

Видео
Идентификатор                            : 1
Формат                                   : AVC
Формат/Информация                        : Advanced Video Codec
Профиль формата                          : High@L4
Параметр CABAC формата                   : Да
Параметр ReFrames формата                : 4 кадра
Идентификатор кодека                     : V_MPEG4/ISO/AVC
Продолжительность                        : 1 ч. 37 м.
Битрейт                                  : 4688 Кбит/сек
Ширина                                   : 1920 пикселей
Высота                                   : 800 пикселей
Соотношение сторон                       : 2,40:1
Режим частоты кадров                     : Постоянный
Частота кадров                           : 23,976 (24000/1001) кадра/сек
Цветовое пространство                    : YUV
Субдискретизация насыщенности            : 4:2:0
Битовая глубина                          : 8 бит
Тип развёртки                            : Прогрессивная
Бит/(Пиксели*Кадры)                      : 0.127
Размер потока                            : 3,18 Гбайт (85%)
Default                                  : Да
Forced                                   : Нет
Цветовой диапазон                        : Limited
Основные цвета                           : BT.709
Характеристики трансфера                 : BT.709
Коэффициенты матрицы                     : BT.709

Аудио #1
Идентификатор                            : 2
Формат                                   : AC-3
Формат/Информация                        : Audio Coding 3
Расширение режима                        : CM (complete main)
Параметр Endianness формата              : Big
Идентификатор кодека                     : A_AC3
Продолжительность                        : 1 ч. 37 м.
Вид битрейта                             : Постоянный
Битрейт                                  : 192 Кбит/сек
Каналы                                   : 2 канала
Расположение каналов                     : Front: L R
Частота                                  : 48,0 КГц
Частота кадров                           : 31,250 кадров/сек (1536 spf)
Битовая глубина                          : 16 бит
Метод сжатия                             : С потерями
Размер потока                            : 133 Мбайт (3%)
Заголовок                                : MVO [HDRezka Studio]
Язык                                     : Russian
Default                                  : Да
Forced                                   : Нет

Аудио #2
Идентификатор                            : 3
Формат                                   : E-AC-3
Формат/Информация                        : Enhanced Audio Coding 3
Параметр Endianness формата              : Big
Идентификатор кодека                     : A_EAC3
Продолжительность                        : 1 ч. 37 м.
Вид битрейта                             : Постоянный
Битрейт                                  : 640 Кбит/сек
Каналы                                   : 6 каналов
Расположение каналов                     : Front: L C R, Side: L R, LFE
Частота                                  : 48,0 КГц
Частота кадров                           : 187,500 кадров/сек (256 spf)
Метод сжатия                             : С потерями
Размер потока                            : 445 Мбайт (12%)
Заголовок                                : [Original]
Язык                                     : English
Default                                  : Нет
Forced                                   : Нет

Текст
Идентификатор                            : 4
Формат                                   : UTF-8
Идентификатор кодека                     : S_TEXT/UTF8
Идентификатор кодека/Информация          : UTF-8 Plain Text
Продолжительность                        : 1 ч. 35 м.
Битрейт                                  : 71 бит/сек
Count of elements                        : 1467
Размер потока                            : 50,2 Кбайт (0%)
Заголовок                                : SDH
Язык                                     : English
Default                                  : Нет
Forced                                   : Нет



Скриншоты:
[+] Всего файлов в раздаче - 1:
An.Interview.with.God.2018.WEB-DL(1080p).OlLanDGroup.mkv3.75 GB

Показать еще раздачи по запросу интервью:
2019-02-19 U Интервью с Богом / An Interview with God (2018) WEB-DL 720p от ELEKTRI4KA | iTunes 3.03 GB ↑ 67 ↓ 10
2019-02-18 U Интервью с Богом / An Interview with God (2018) WEB-DL 1080p от ELEKTRI4KA | iTunes 3.37 GB ↑ 140 ↓ 58
2019-02-18 U Интервью с Богом / An Interview with God (2018) WEB-DLRip от ELEKTRI4KA | iTunes 1.37 GB ↑ 206 ↓ 58
2019-02-07 U Интервью с Богом / An Interview with God (2018) WEB-DLRip от MegaPeer | HDRezka Studio 1.46 GB ↑ 52 ↓ 37
2019-02-07 U Интервью с Богом / An Interview with God (2018) WEB-DLRip-AVC от OlLanDGroup | HDRezka Studio 1.68 GB ↑ 71 ↓ 28
2018-02-07 U Интервью с вампиром (2018) WEBRip от Files-х 499.43 MB ↑ 224 ↓ 15
2017-08-10 U Интервью с Путиным / The Putin Interviews [01-04 из 04] (2017) HDTVRip 720p от GeneralFilm | Первый канал 5.73 GB ↑ 181 ↓ 25

Отзывы
Зарегистрируйтесь чтобы добавить комментарий.
Обратная связь
Copyleft ©