↑↓Torrent.by
Поиск
Логин: Регистрация
Пароль: Восстановить пароль
Загрузка...

Жена / The Wife (2017) BDRip | iTunes

Скачать zhena-the-wife-2017-bdrip-itunes.torrent
U Магнитная ссылка Размер: 1.43 GB Раздают: 57 Качают: 78 Добавлен: 2019-02-07 15:33:36
Жена / The Wife (2017) BDRip | iTunes

Название: Жена
Оригинальное название: The Wife
Год выхода: 2017
Жанр: Драма
Страна: Великобритания, Швеция, США
Перевод: Дублированный | iTunes
Продолжительность: 01:40:29
Режиссер: Бьёрн Рунге
В ролях: Гленн Клоуз, Джонатан Прайс, Кристиан Слэйтер, Макс Айронс, Энни Старк, Гарри Ллойд, Элизабет МакГоверн, Юхан Видерберг, Карин Франц Корлоф, Ричард Кордери и др.

О фильме: В течение сорока лет Джоан Кастельман приносила в жертву свой талант, мечты и амбиции, дабы фигура ее харизматичного супруга Джо, вкупе с его успешной карьерой нью-йоркского литератора, блистали ярко. Но в вечер перед вручением долгожданной Нобелевской премии Джоан решает раскрыть секреты мужа.

Файл
Формат: AVI
Качество: BDRip | The.Wife.2017.1080p.BluRay.REMUX.AVC.DTS-HD.MA.5.1-FGT
Видео: Xvid 73, 720x304, ~1640 kbps, 23,976 fps
Звук: русский, AC3, 5.1 ch, 48 kHz, 384 kbps | iTunes
Субтитры: русские (форс. вшитые)

Релиз:


[+] MI
General
Полное имя                               : E:TorrentTheWifeBDRip.avi
Формат                                   : AVI
Формат/Информация                        : Audio Video Interleave
Профиль формата                          : OpenDML
Размер файла                             : 1.43 GiB
Продолжительность                        : 1 h 40 min
Общий поток                              : 2 036 kb/s
Программа кодирования                    : XviD4PSP 6.0 / 54.27.101

Video
Идентификатор                            : 0
Формат                                   : MPEG-4 Visual
Профиль формата                          : Advanced Simple@L5
Настройки формата                        : BVOP2 / Custom Matrix
Параметр BVOP формата                    : 2
Параметр QPel формата                    : No
Параметр GMC формата                     : No warppoints
Параметр матрицы формата                 : Custom
Идентификатор кодека                     : XVID
Идентификатор кодека/Подсказка           : XviD
Продолжительность                        : 1 h 40 min
Битрейт                                  : 1 640 kb/s
Ширина                                   : 720 pixels
Высота                                   : 304 pixels
Соотношение сторон                       : 2.35:1
Частота кадров                           : 23.976 (23976/1000) FPS
Цветовое пространство                    : YUV
Субдискретизация насыщенности            : 4:2:0
Битовая глубина                          : 8 bits
Тип развёртки                            : Progressive
Метод сжатия                             : Lossy
Бит/(Пиксели*Кадры)                      : 0.313
Размер потока                            : 1.15 GiB (81%)
Библиотека кодирования                   : XviD 73

Audio
Идентификатор                            : 1
Формат                                   : AC-3
Формат/Информация                        : Audio Coding 3
Идентификатор кодека                     : 2000
Продолжительность                        : 1 h 40 min
Вид битрейта                             : Constant
Битрейт                                  : 384 kb/s
Каналы                                   : 6 channels
Расположение каналов                     : Front: L C R, Side: L R, LFE
Частота                                  : 48.0 kHz
Частота кадров                           : 31.250 FPS (1536 SPF)
Битовая глубина                          : 16 bits
Метод сжатия                             : Lossy
Размер потока                            : 275 MiB (19%)
Выравнивание                             : Aligned on interleaves
Продолжительность промежутка             : 32  ms (0.77 video frame)




Скриншоты:
[+] Всего файлов в раздаче - 1:
TheWifeBDRip.avi1.43 GB

Показать еще раздачи по запросу жена:
2019-02-07 U Жена / The Wife (2017) BDRip от MegaPeer | iTunes 1.41 GB ↑ 59 ↓ 20
2019-02-07 U Жена / The Wife (2017) BDRip 720p | iTunes 3.33 GB ↑ 31 ↓ 49
2019-02-07 U Жена / The Wife (2017) BDRip 1080p | iTunes 6.66 GB ↑ 49 ↓ 132
2018-12-23 U Жена – не стена (2018) SATRip 1.15 GB ↑ 204 ↓ 71
2018-11-29 U Жена с того света [01-04 из 04] (2018) WEB-DLRip от Files-x 2.74 GB ↑ 109 ↓ 53
2018-10-29 U Гражданская жена [01-02 из 02] (2018) WEB-DLRip от Files-x 2.75 GB ↑ 112 ↓ 54
2018-10-28 U Гражданская жена [01-02 из 02] (2018) WEB-DLRip-AVC от Files-x 2.25 GB ↑ 76 ↓ 65

Отзывы
Зарегистрируйтесь чтобы добавить комментарий.
Обратная связь
Copyleft ©