↑↓torrent.by
Поиск
Логин: Регистрация
Пароль: Восстановить пароль

Турист (2021) WEB-DLRip-AVC | iTunes

Скачать turist-2021-web-dlrip-avc-itunes.torrent
U Магнитная ссылка Размер: 1.41 GB Раздают: 343 Качают: 59 Добавлен: 2021-05-26 19:59:42
Турист (2021) WEB-DLRip-AVC | iTunes

Название: Турист
Год выхода: 2021
Жанр:  Боевик
Режиссер: Андрей Щербинин
В ролях: Алексей Шевченков, Александр Барановский, Владимир Петров (VIII), Евгений Терских, Флавия-Гертруда Мбайабе, Уилфред Уильямс, Сергей Воробьёв (IV), Георгий Болонев, Алексей Удальцов, Глеб Темнов, Денис Волков (II), Сергей Гарусов, Сергей Павлов (II), Олег Поддубный, Алексей Червяков, Константин Бараев, Павел Ткаченко, Алексей Румянцев, Павел Богомолов, Сергей Бледных, Евгений Антонов.

О фильме:
В Центральноафриканской Республике (ЦАР) работают российские инструкторы, обучающие армию этой страны по просьбе местного правительства. Россия отправляет несколько сотен военных и тяжёлую технику в ЦАР, чтобы поддержать правительство. На базу высаживаются новички, среди них – бывший сотрудник полиции, 27-летний Гриша Дмитриев. Тем временем, ситуация в республике обостряется в преддверии президентских и парламентских выборов...

Страна: Россия
Студия: Производство ООО "Паритет Фильм"
Продолжительность: 01:39:09
Озвучивание: Оригинальное | iTunes
► Без Рекламы!

Файл                                      
Формат: Matroska
Качество: WEB-DLRip-AVC
Видео: 1024x428 at 24.000 fps, x264@L4.1, ~1711 kbps, 0.163 bpp
Аудио #1: Russian: 48 kHz, AC3 Dolby Digital, 2/0 (L, R) ch, ~192 Kbps | iTunes
Аудио #2: Russian: 48 kHz, Advanced Audio Codec, 2/0 (L, R) ch, ~126 Kbps | iTunes
Субтитры: Нет

***Релиз от: -=DoMiNo=-


[+] M/I
x264 [info]: frame I:1070  Avg QP:19.02  size: 42771
x264 [info]: frame P:53013 Avg QP:20.15  size: 15101
x264 [info]: frame B:88705 Avg QP:21.03  size:  4802
x264 [info]: consecutive B-frames: 13.1% 12.9% 12.6% 45.9%  6.7%  6.0%  0.8%  1.0%  0.1%  0.1%  0.2%  0.1%  0.4%

General
Format                      : Matroska
Format version              : Version 4
File size                   : 1.41 GiB
Duration                    : 1 h 39 min
Overall bit rate            : 2 031 kb/s
Movie name                  : Турист.(2021).WEB-DLRip-AVC.[-=DoMiNo=-]
Encoded date                : UTC 2021-05-26 14:49:32
Writing application         : mkvmerge v57.0.0 ('Till The End') 64-bit
Writing library             : libebml v1.4.2 + libmatroska v1.6.4
Cover                       : Yes
Attachments                 : Cover.jpg / Cover 2.jpg

Video
ID                          : 1
Format                      : AVC
Format/Info                 : Advanced Video Codec
Format profile              : High@L4.1
Format settings             : CABAC / 15 Ref Frames
Format settings, CABAC      : Yes
Format settings, Reference  : 15 frames
Codec ID                    : V_MPEG4/ISO/AVC
Duration                    : 1 h 39 min
Bit rate                    : 1 711 kb/s
Width                       : 1 024 pixels
Height                      : 428 pixels
Display aspect ratio        : 2.40:1
Frame rate mode             : Constant
Frame rate                  : 24.000 FPS
Color space                 : YUV
Chroma subsampling          : 4:2:0
Bit depth                   : 8 bits
Scan type                   : Progressive
Bits/(Pixel*Frame)          : 0.163
Stream size                 : 1.18 GiB (84%)
Title                       : -=DoMiNo=-
Writing library             : x264 core 163 r3059 b684ebe
Encoding settings           : cabac=1 / ref=15 / deblock=1:-2:-2 / analyse=0x3:0x133 / me=umh / subme=11 / psy=1 / psy_rd=1.00:0.00 / mixed_ref=1 / me_range=48 / chroma_me=1 / trellis=2 / 8x8dct=1 / cqm=0 / deadzone=21,11 / fast_pskip=0 / chroma_qp_offset=-2 / threads=32 / lookahead_threads=3 / sliced_threads=0 / nr=0 / decimate=0 / interlaced=0 / bluray_compat=0 / constrained_intra=0 / bframes=12 / b_pyramid=2 / b_adapt=2 / b_bias=0 / direct=3 / weightb=1 / open_gop=0 / weightp=2 / keyint=250 / keyint_min=24 / scenecut=40 / intra_refresh=0 / rc_lookahead=60 / rc=2pass / mbtree=0 / bitrate=1711 / ratetol=1.0 / qcomp=0.75 / qpmin=0 / qpmax=69 / qpstep=4 / cplxblur=20.0 / qblur=0.5 / vbv_maxrate=50000 / vbv_bufsize=62500 / nal_hrd=none / filler=0 / ip_ratio=1.22 / pb_ratio=1.30 / aq=3:0.80
Language                    : Russian
Default                     : Yes
Forced                      : Yes
Color range                 : Limited
Color primaries             : BT.709
Transfer characteristics    : BT.709
Matrix coefficients         : BT.709

Audio #1
ID                          : 2
Format                      : AC-3
Format/Info                 : Audio Coding 3
Commercial name             : Dolby Digital
Codec ID                    : A_AC3
Duration                    : 1 h 39 min
Bit rate mode               : Constant
Bit rate                    : 192 kb/s
Channel(s)                  : 2 channels
Channel layout              : L R
Sampling rate               : 48.0 kHz
Frame rate                  : 31.250 FPS (1536 SPF)
Compression mode            : Lossy
Stream size                 : 136 MiB (9%)
Title                       : Original AC3 (iTunes)
Language                    : Russian
Service kind                : Complete Main
Default                     : Yes
Forced                      : Yes

Audio #2
ID                          : 3
Format                      : AAC LC
Format/Info                 : Advanced Audio Codec Low Complexity
Codec ID                    : A_AAC-2
Duration                    : 1 h 39 min
Bit rate                    : 126 kb/s
Channel(s)                  : 2 channels
Channel layout              : L R
Sampling rate               : 48.0 kHz
Frame rate                  : 46.875 FPS (1024 SPF)
Compression mode            : Lossy
Stream size                 : 89.4 MiB (6%)
Title                       : Original AAC (iTunes)
Language                    : Russian
Default                     : No
Forced                      : No

Menu
00:00:00.000                : Глава 1
00:02:30.208                : Глава 2
00:09:02.666                : Глава 3
00:15:44.582                : Глава 4
00:20:52.457                : Глава 5
00:27:01.540                : Глава 6
00:34:37.290                : Глава 7
00:38:49.706                : Глава 8
00:42:49.039                : Глава 9
00:51:48.580                : Глава 10
00:59:37.330                : Глава 11
01:04:22.371                : Глава 12
01:12:25.412                : Глава 13
01:18:47.703                : Глава 14
01:23:59.994                : Глава 15
01:31:05.494                : Глава 16
01:35:08.369                : Глава 17



Скриншоты:
[+] Всего файлов в раздаче - 1:

Показать еще раздачи по запросу турист:
2021-06-29 U Турист (2021) WEB-DLRip-AVC 2.61 GB ↑ 165 ↓ 19
2021-06-28 U Турист (2021) WEB-DL 1080p от EniaHD 4.55 GB ↑ 142 ↓ 58
2021-05-30 U Турист (2021) WEB-DLRip от Files-x | iTunes 1.46 GB ↑ 47 ↓ 27
2021-05-28 U Турист (2021) WEB-DLRip-AVC от Files-x | iTunes 1.46 GB ↑ 368 ↓ 25
2021-05-25 U Турист (2021) WEB-DLRip от ExKinoRay | iTunes 745.36 MB ↑ 326 ↓ 29
2021-05-25 U Турист (2021) WEB-DLRip от ELEKTRI4KA | iTunes 1.46 GB ↑ 332 ↓ 28
2021-05-25 U Турист (2021) WEB-DL 720p от ELEKTRI4KA | iTunes 2.98 GB ↑ 114 ↓ 23

Отзывы
Зарегистрируйтесь чтобы добавить комментарий.
Торрент клиент
byTorrent - программа для загрузки торрент-файлов.
Скачать byTorrent
Обратная связь
Copyleft ©