↑↓Torrent.by
Поиск
Логин: Регистрация
Пароль: Восстановить пароль
Загрузка...

Ловушка времени / Time Trap (2017) BDRip 1080p от Ash61 | D, P | iTunes

Скачать lovushka-vremeni-time-trap-2017-bdrip-1080p-ot-ash61-d-p-itunes.torrent
U Магнитная ссылка Размер: 6.64 GB Раздают: 67 Качают: 25 Добавлен: 2019-02-08 02:26:28
Ловушка времени / Time Trap (2017) BDRip 1080p от Ash61 | D, P | iTunes

Ловушка времени
Time Trap


Год выпуска: 2017
Страна: США (Filmsmith, Pad Thai Pictures)
Жанр:  фантастика, приключения, боевик
Продолжительность: 01:27:32

Перевод: Дубляж (iTunes) + Профессиональный многоголосый закадровый

Режиссер: Марк Деннис, Бен Фостер / Mark Dennis, Ben Foster

В ролях:

Рейли МакКлендон (Тейлор), Кэссиди Гиффорд (Кара), Брианна Хоуи (Джеки), Оливия Драгусевич (Вивс), Макс Райт (Фёрби), Эндрю Уилсон (Хоппер), Рич Скидмор (Ричард Пинторо), Крис Старджон (отец Хоппера)

Описание: Группа студентов отправляются в пещеры Техаса, чтобы найти своего любимого преподавателя по археологии, пропавшего без вести некоторое время назад. Ребята уверены, что он нуждается в помощи, а раз спасатели не смогут оперативно выполнить эту работу, то у них не остается выбора. Студенты готовы рисковать собственными жизнями ради спасения своего преподавателя. Кроме того, их интересует его необычная теория, которая гласит, что в этих местах может находиться истинный источник молодости.

Доп. инфо.: Видео забугорное, мной нетронутое.
В дубляже iTunes устранён имевшийся рассинхрон.
Озвучка HDrezka получена вставкой русских фраз в центр оригинала.

Премьера (мир): 19 мая 2017
Качество: BDRip 1080p
Контейнер: MKV

Видео: AVC / 1920х816p / 23,976 fps / 9188 Kbps

Аудио:
#1 - Русский / AC3 / 48 KHz / 5.1 ch / 384 Kbps (Дубляж - iTunes) (edited)
#2 - Русский / AC3 / 48 KHz / 5.1 ch / 640 Kbps (MVO - HDrezka Studio) (перемонтаж - Ash61)
#3 - Английский / AC3 / 48 KHz / 5.1 ch / 640 Kbps (Original)

Субтитры (SRT):
Вшитые (softsub):
#1 - Русские Форсированные (для дубляжа iTunes) [от Ash61] (включены по умолчанию)
#2 - Русские Форсированные (для дороги HDrezka) [от Ash61]
#3 - English Full

Внешние (UTF-8):
#1 - Русские Форсированные (для дубляжа iTunes) [от Ash61] (включены по умолчанию)
#2 - Русские Форсированные (для дороги HDrezka) [от Ash61]
[+] MediaInfo
General
Unique ID                   : 171794633942617227272250113179190823789 (0x813E71671AF947248D0B77B5BA700B6D)
Complete name               : J:TimeTrap(2017)BDRip.1080p.PFa(Rus-iTunes)TimeTrap(2017)BDRip.1080p.PFa(Rus-iTunes).mkv
Format                      : Matroska
Format version              : Version 2
File size                   : 6.64 GiB
Duration                    : 1h 27mn
Overall bit rate            : 10.9 Mbps
Movie name                  : Ловушка времени / Time Trap (2017)
Encoded date                : UTC 2019-02-07 19:15:19
Writing application         : mkvmerge v5.8.0 ('No Sleep / Pillow') built on Sep  2 2012 15:37:04
Writing library             : libebml v1.2.3 + libmatroska v1.3.0

Video
ID                          : 1
Format                      : AVC
Format/Info                 : Advanced Video Codec
Format profile              : High@L4.1
Format settings, CABAC      : Yes
Format settings, ReFrames   : 5 frames
Codec ID                    : V_MPEG4/ISO/AVC
Duration                    : 1h 27mn
Bit rate                    : 9 188 Kbps
Width                       : 1 920 pixels
Height                      : 816 pixels
Display aspect ratio        : 2.35:1
Frame rate mode             : Constant
Frame rate                  : 23.976 fps
Color space                 : YUV
Chroma subsampling          : 4:2:0
Bit depth                   : 8 bits
Scan type                   : Progressive
Bits/(Pixel*Frame)          : 0.245
Stream size                 : 5.49 GiB (83%)
Title                       : Time.Trap.2017.1080p.BluRay.x264-PFa
Writing library             : x264 core 155 r2901 7d0ff22
Encoding settings           : cabac=1 / ref=5 / deblock=1:0:0 / analyse=0x3:0x133 / me=umh / subme=8 / psy=1 / psy_rd=1.00:0.00 / mixed_ref=1 / me_range=16 / chroma_me=1 / trellis=1 / 8x8dct=1 / cqm=0 / deadzone=21,11 / fast_pskip=0 / chroma_qp_offset=-2 / threads=12 / lookahead_threads=2 / sliced_threads=0 / nr=0 / decimate=1 / interlaced=0 / bluray_compat=0 / constrained_intra=0 / bframes=3 / b_pyramid=2 / b_adapt=1 / b_bias=0 / direct=1 / weightb=1 / open_gop=0 / weightp=2 / keyint=250 / keyint_min=23 / scenecut=40 / intra_refresh=0 / rc_lookahead=40 / rc=2pass / mbtree=1 / bitrate=9188 / ratetol=1.0 / qcomp=0.60 / qpmin=0 / qpmax=69 / qpstep=4 / cplxblur=20.0 / qblur=0.5 / ip_ratio=1.40 / aq=1:1.00
Language                    : English
Default                     : Yes
Forced                      : No

Audio #1
ID                          : 2
Format                      : AC-3
Format/Info                 : Audio Coding 3
Mode extension              : CM (complete main)
Format settings, Endianness : Big
Codec ID                    : A_AC3
Duration                    : 1h 27mn
Bit rate mode               : Constant
Bit rate                    : 384 Kbps
Channel(s)                  : 6 channels
Channel positions           : Front: L C R, Side: L R, LFE
Sampling rate               : 48.0 KHz
Frame rate                  : 31.250 fps (1536 spf)
Compression mode            : Lossy
Stream size                 : 240 MiB (4%)
Title                       : Дубляж - iTunes
Language                    : Russian
Default                     : Yes
Forced                      : No

Audio #2
ID                          : 3
Format                      : AC-3
Format/Info                 : Audio Coding 3
Mode extension              : CM (complete main)
Format settings, Endianness : Big
Codec ID                    : A_AC3
Duration                    : 1h 27mn
Bit rate mode               : Constant
Bit rate                    : 640 Kbps
Channel(s)                  : 6 channels
Channel positions           : Front: L C R, Side: L R, LFE
Sampling rate               : 48.0 KHz
Frame rate                  : 31.250 fps (1536 spf)
Compression mode            : Lossy
Stream size                 : 401 MiB (6%)
Title                       : MVO - HDrezka Studio (перемонтаж - Ash61)
Language                    : Russian
Default                     : No
Forced                      : No

Audio #3
ID                          : 4
Format                      : AC-3
Format/Info                 : Audio Coding 3
Mode extension              : CM (complete main)
Format settings, Endianness : Big
Codec ID                    : A_AC3
Duration                    : 1h 27mn
Bit rate mode               : Constant
Bit rate                    : 640 Kbps
Channel(s)                  : 6 channels
Channel positions           : Front: L C R, Side: L R, LFE
Sampling rate               : 48.0 KHz
Frame rate                  : 31.250 fps (1536 spf)
Compression mode            : Lossy
Stream size                 : 401 MiB (6%)
Title                       : Original - BD
Language                    : English
Default                     : No
Forced                      : No

Text #1
ID                          : 5
Format                      : UTF-8
Codec ID                    : S_TEXT/UTF8
Codec ID/Info               : UTF-8 Plain Text
Title                       : Форсированные (для озвучки iTunes) [от Ash61]
Language                    : Russian
Default                     : Yes
Forced                      : No

Text #2
ID                          : 6
Format                      : UTF-8
Codec ID                    : S_TEXT/UTF8
Codec ID/Info               : UTF-8 Plain Text
Title                       : Форсированные (для дороги HDrezka Studio) [от Ash61]
Language                    : Russian
Default                     : No
Forced                      : No

Text #3
ID                          : 7
Format                      : UTF-8
Codec ID                    : S_TEXT/UTF8
Codec ID/Info               : UTF-8 Plain Text
Title                       : Full
Language                    : English
Default                     : No
Forced                      : No



[+] Скрытый текст
...что большинству (90%) любителей Марвела фильм не понравится. Я смотрю Марвел. Но, побольшому счету, нормальных фильмов там мало. От силы 1 из 2. А хороших еще меньше. Они слишком ориентированы на подростков, со всеми вытекающими. Страдающей логикой. Большим кол-вом бреда. Непроработанностью диалогов и много еще чем. Причем непонятно почему это сложно проработать, надо лишь дать писать сценарий не 35-летнему балбесу, которому в душе 13-15 лет, а нормальному сценаристу. Чтобы, несмотря на обилие спецэффектов, фильм хотелось смотреть и тем, кто старше. Раньше фильмы снимали про взрослых мужиков: Джеки Чан, Ван Дамм, Брюс Уиллис, Аль Пачино, Арни, Де Ниро, Сталлоне, Чак Норрис, Мэл Гибсон, Гир, Траволта, Джексон, Рено, Ди Каприо, Ривз, Мерфи... может кого еще забыл. Суть в том, что фильм был расчитан на аудиторию 20-50 лет. Ну и судя по тому, что происходило подросткам это тоже очень нравилось. Все были довольны.
А сейчас пошли фильмы про маленьким, средних и постарше "девочек". Видимо, в силу доминации феминизма, им почему-то кажется, что отсутствие женщин в главных ролях - это какое-то ущемление. Причем по сути ведь это чушь, в большинстве мелодрам, драм всегда главные роли были у женщин. Да и в боевиках, ужасах, фантастике - их тоже хватало.
Разве "Чужой" - это не главная женская роль? А в Армагеддоне (любовь Лив Тайлер и Бена Аффлека)? Пассажиры? Гравитация... И таких фильмов огромное кол-во. Но это же не порядок... надо чтобы в каждом втором фильме и мульте, именно главная роль была у девушки/женщины вот и начался этот бред. Мало стало того, что в каждом фильме, сериале главные героини - это феминистки, где мужики сидят дома с детьми, а жены зарабатывают. Это показаны не отдельные истории из жизни людей, это насаждается уже как норма.
Про Сумерки, Голодные игры, недавно сняли бред 8 подруг Оушена. Моя жена сказала, ну что за бред? Почему ее не напрягало смотреть 11 друзей Оушена, где почти все мужики. Как и фильмы, где в главной роли мужик. Бонд, Форсаж, Перевозчик и куча других фильмов.
Даже Кинопоиск...
https://www.kinopoisk.ru/lists/m_act%5Bkeyword%5D/513/
оказывается есть те, кто ищет "главный персонаж женщина". :)))
Так, что в ближайшие годы фильмы (в том числе Марвела) окончательно станут для подростков и с большим акцентом на девушек-подростков.
А вот таких фильмов будет днем с огнем не сыскать. Так что будем наслаждаться тем, что еще пока есть.
А для мужиков все меньше и меньше, сейчас кто остался из тех, кто популярен? Стэтхем и Крейг? Монстров вроде Альпачино и др. становится все меньше, а новые не приходят.
Такого ТОПового подбора актеров, что были в 90х-начале 2000 еще долго не будет, если вообще когда-нибудь будет.



[+] Скрытый текст
А длинного пришельца из будущего, того которому по репе его же шлемом настучали - в корыто закинуть западло было? Т.П. с вывихнутой лодыжкой тоже подзадрала



[+] Скрытый текст
Сюжет вообще не раскрывает судьбу космонавта и влияние истекшего таймера, может будет продолжение?



Скриншоты:
[+] Всего файлов в раздаче - 3:
TimeTrap(2017)BDRip.1080p.PFa(Rus-iTunes).mkv6.64 GB
TimeTrap(2017)BDRip.1080p.PFa(Rus-iTunes).srt723.00 B
TimeTrap(2017)Субтитры.Русские.Форсированные(для.HDrezka).srt1.03 kB

Показать еще раздачи по запросу ловушка:
2019-02-04 U Ловушка времени / Time Trap (2017) HDRip-AVC от OlLanDGroup | D, P | iTunes 1.77 GB ↑ 221 ↓ 53
2019-02-04 U Ловушка времени / Time Trap (2017) HDRip от MegaPeer | iTunes 1.42 GB ↑ 737 ↓ 149
2018-09-29 U Ловушка времени / Time Trap (2017) HDRip от MegaPeer | HDRezka Studio 1.46 GB ↑ 433 ↓ 176
2018-09-29 U Ловушка времени / Time Trap (2017) BDRip 1080p от Ash61 | P, L 6.79 GB ↑ 438 ↓ 181
2018-09-26 U Ловушка времени / Time Trap (2017) HDRip-AVC от OlLanDGroup | HDrezka Studio 1.53 GB ↑ 200 ↓ 93
2018-09-16 U Ловушка времени / Time Trap (2017) HDRip-AVC от ExKinoRay | L 746.80 MB ↑ 75 ↓ 22
2018-09-10 U Ловушка времени / Time Trap (2017) HDRip | L 1.45 GB ↑ 507 ↓ 225

Отзывы
Зарегистрируйтесь чтобы добавить комментарий.
Обратная связь
Copyleft ©