↑↓Torrent.by
Поиск
Логин: Регистрация
Пароль: Восстановить пароль
Загрузка...

Дис / Dis (2019) WEBRip-AVC | L2

Скачать dis-2019-webrip-avc-l2.torrent
U Магнитная ссылка Размер: 1.16 GB Раздают: 79 Качают: 31 Добавлен: 2019-02-08 13:42:38
Дис / Dis (2019) WEBRip-AVC | L2

Название: Дис
Оригинальное название: Dis

Год выхода: 2019
Жанр: Ужасы
Режиссер: Адриан Корона
В ролях: Билл Оберст мл., Лори Джо Хендрикс, Питер Гонсалес Фалкон, Мануэль Домингес, Анна Войцехова
О фильме:
Солдат с тёмным уголовным прошлым дезертирует из армии и скрывается в древнем лесу, где его находит и заманивает в ловушку Дис - древний демон в обличье соблазнительной девушки.

Страна: США
Продолжительность: 01:01:11
Перевод: Любительский (двухголосый закадровый) | HiWay Grope

Файл
Кодек: MPEG-4 AVC/x.264
Качество: WEBRip-AVC
Видео: 720x288, 23.976 fps, ~2344 kbps, 0.472 bit/pixel
Звук:
Аудио rus: AC3, 48 kHz, 6 ch, 384 Kbps
Субтитры: отсутствуют

Реклама: присутствует

Семпл

Релиз от: HiWay Grope


[+] MediaInfo:

General
Unique ID                                : 293499984380051400355106703663858069854 (0xDCCE0A75C432F8CCB6CD22AB292A315E)
Complete name                            : D:DIS.2017.WEBRip-AVC.HiWayGropeDIS.2017.WEBRip-AVC.HiWayGrope.mkv
Format                                   : Matroska
Format version                           : Version 4
File size                                : 1.16 GiB
Duration                                 : 1 h 0 min
Overall bit rate                         : 2 729 kb/s
Encoded date                             : UTC 2019-02-08 05:58:49
Writing application                      : mkvmerge v30.0.0 ('Interstellar') 64-bit
Writing library                          : libebml v1.3.6 + libmatroska v1.4.9

Video
ID                                       : 1
Format                                   : AVC
Format/Info                              : Advanced Video Codec
Format profile                           : Main@L4.1
Format settings                          : CABAC / 4 Ref Frames
Format settings, CABAC                   : Yes
Format settings, RefFrames               : 4 frames
Codec ID                                 : V_MPEG4/ISO/AVC
Duration                                 : 1 h 0 min
Bit rate                                 : 2 344 kb/s
Width                                    : 720 pixels
Height                                   : 288 pixels
Display aspect ratio                     : 2.500
Frame rate mode                          : Constant
Frame rate                               : 23.976 (24000/1001) FPS
Standard                                 : NTSC
Color space                              : YUV
Chroma subsampling                       : 4:2:0
Bit depth                                : 8 bits
Scan type                                : Progressive
Bits/(Pixel*Frame)                       : 0.472
Stream size                              : 1 016 MiB (86%)
Language                                 : English
Default                                  : Yes
Forced                                   : No
Color range                              : Limited
Color primaries                          : BT.601 NTSC
Transfer characteristics                 : BT.601
Matrix coefficients                      : BT.601

Audio
ID                                       : 2
Format                                   : AC-3
Format/Info                              : Audio Coding 3
Commercial name                          : Dolby Digital
Codec ID                                 : A_AC3
Duration                                 : 1 h 0 min
Bit rate mode                            : Constant
Bit rate                                 : 384 kb/s
Channel(s)                               : 6 channels
Channel layout                           : L R C LFE Ls Rs
Sampling rate                            : 48.0 kHz
Frame rate                               : 31.250 FPS (1536 SPF)
Bit depth                                : 16 bits
Compression mode                         : Lossy
Stream size                              : 166 MiB (14%)
Language                                 : Russian
Service kind                             : Complete Main
Default                                  : Yes
Forced                                   : No




Скриншоты:
[+] Всего файлов в раздаче - 1:
DIS.2017.WEBRip-AVC.HiWayGrope.mkv1.16 GB

Показать еще раздачи по запросу webrip:
Сегодня U Подсудимый [01-02 из 16] (2019) WEBRip 1080p от ExKinoRay 4.19 GB ↑ 27 ↓ 26
Сегодня U Подсудимый [01-02 из 16] (2019) WEBRip от GeneralFilm 1.09 GB ↑ 42 ↓ 22
2019-04-21 U Смерш [01-04 из 12] (2019) WEBRip-AVC 2.81 GB ↑ 5 ↓ 12
2019-04-21 U Гранд [S02] (2019) WEBRip-AVC от Files-x 6.39 GB ↑ 44 ↓ 141
2019-04-21 U Ростов [01-16 из 16] (2019) WEBRip от Generalfilm | КПК 2.93 GB ↑ 94 ↓ 91
2019-04-21 U Ростов [01-16 из 16] (2019) WEBRip-AVC от Files-x 12.08 GB ↑ 96 ↓ 183
2019-04-21 U Гранд [S02] (2019) WEBRip от Files-x 6.36 GB ↑ 67 ↓ 289

Отзывы
Зарегистрируйтесь чтобы добавить комментарий.
Обратная связь
Copyleft ©