↑↓Torrent.by
Поиск
Логин: Регистрация
Пароль: Восстановить пароль
Загрузка...

Богемская рапсодия / Bohemian Rhapsody (2018) BDRip 720p от селезень | Лицензия

Скачать bogemskaya-rapsodiya-bohemian-rhapsody-2018-bdrip-720p-ot-selezen-licenziya.torrent
U Магнитная ссылка Размер: 6.76 GB Раздают: 79 Качают: 55 Добавлен: 2019-02-08 13:43:02
Богемская рапсодия / Bohemian Rhapsody (2018) BDRip 720p от селезень | Лицензия

Название: Богемская рапсодия
Оригинальное название: Bohemian Rhapsody
Год выхода: 2018
Жанр: Драма, биография, музыка
Режиссер: Брайан Сингер
В ролях: Рами Малек, Люси Бойнтон, Гвилим Ли, Бен Харди, Джозеф Маццелло, Майк Майерс, Эйден Гиллен, Том Холландер, Аллен Лич, Аарон МакКаскер, Эйс Бхатти, Прия Блэкберн, Дермот Мерфи, Тим Плестер, Дики Бо

О фильме: Чествование группы Queen, их музыки и их выдающегося вокалиста Фредди Меркьюри, который бросил вызов стереотипам и победил условности, чтобы стать одним из самых любимых артистов на планете. Фильм прослеживает головокружительный путь группы к успеху, благодаря их культовым песням и революционному звуку, практически распад коллектива, поскольку образ жизни Меркьюри выходит из-под контроля, и их триумфальное воссоединение накануне концерта Live Aid, ставшим одним из величайших выступлений в истории рок-музыки.

Страна: Великобритания, США
Студия: GK Films, New Regency Pictures, Queen Films Ltd.
Продолжительность: 02:14:37
Перевод: Дублированный | Лицензия

Качество: BDRip 720p
Видео: MPEG-4 AVC, 1280x536, 4016 Kbit/s, 23.976 fps
Звук:
Аудио #01: 48 kHz, DTS, 5.1, 768 Kbps | Дублированный | RUS |
Аудио #02: 48 kHz, AC3, 5.1, 448 Kbps | Дублированный | RUS |
Аудио #03: 48 kHz, AC3, 5.1, 448 Kbps | Дублированный | UKR |
Аудио #04: 48 kHz, DTS, 5.1, 1510 Kbps | Оригинал |  ENG |
Субтитры: Русские (Forced, full), украинские (Forced, full), английские (SDH, SDH Colored)

Релиз:


[+] MI
General
Unique ID                   : 280424606101284318037072523979998734516 (0xD2F7D089D849DD339D6FCE2851B9A8B4)
Complete name               : D:Video111Bohemian.Rhapsody.2018.Lic.BDRip.720p.seleZen.mkv
Format                      : Matroska
Format version              : Version 4
File size                   : 6.76 GiB
Duration                    : 2 h 14 min
Overall bit rate            : 7 193 kb/s
Movie name                  : Bohemian Rhapsody 2018 from селезень
Encoded date                : UTC 2019-02-07 19:45:43
Writing application         : mkvmerge v29.0.0 ('Like It Or Not') 64-bit
Writing library             : libebml v1.3.6 + libmatroska v1.4.9

Video
ID                          : 1
Format                      : AVC
Format/Info                 : Advanced Video Codec
Format profile              : High@L4.1
Format settings             : CABAC / 12 Ref Frames
Format settings, CABAC      : Yes
Format settings, ReFrames   : 12 frames
Codec ID                    : V_MPEG4/ISO/AVC
Duration                    : 2 h 14 min
Bit rate                    : 4 016 kb/s
Width                       : 1 280 pixels
Height                      : 536 pixels
Display aspect ratio        : 2.40:1
Frame rate mode             : Constant
Frame rate                  : 23.976 (24000/1001) FPS
Color space                 : YUV
Chroma subsampling          : 4:2:0
Bit depth                   : 8 bits
Scan type                   : Progressive
Bits/(Pixel*Frame)          : 0.244
Stream size                 : 3.78 GiB (56%)
Title                       : MTeam
Writing library             : x264 core 157 r2938 2b00a84 TnP@MTeam Mod
Encoding settings           : cabac=1 / ref=12 / deblock=1:-3:-3 / analyse=0x3:0x133 / me=umh / subme=10 / psy=1 / psy_rd=1.05:0.00 / mixed_ref=1 / me_range=24 / chroma_me=1 / trellis=2 / 8x8dct=1 / cqm=0 / deadzone=21,11 / fast_pskip=0 / chroma_qp_offset=-2 / threads=12 / lookahead_threads=2 / sliced_threads=0 / nr=0 / decimate=0 / interlaced=0 / bluray_compat=0 / constrained_intra=0 / bframes=8 / b_pyramid=2 / b_adapt=2 / b_bias=0 / direct=3 / weightb=1 / open_gop=0 / weightp=2 / keyint=250 / keyint_min=24 / scenecut=40 / intra_refresh=0 / rc_lookahead=250 / rc=crf / mbtree=0 / crf=16.7 / qcomp=0.60 / qpmin=0 / qpmax=69 / qpstep=4 / vbv_maxrate=62500 / vbv_bufsize=78125 / crf_max=0.0 / nal_hrd=none / filler=0 / ip_ratio=1.30 / pb_ratio=1.20 / aq=3:0.80
Language                    : English
Default                     : Yes
Forced                      : No
Color range                 : Limited
Color primaries             : BT.709
Matrix coefficients         : BT.709

Audio #1
ID                          : 2
Format                      : DTS
Format/Info                 : Digital Theater Systems
Codec ID                    : A_DTS
Duration                    : 2 h 14 min
Bit rate mode               : Constant
Bit rate                    : 768 kb/s
Channel(s)                  : 6 channels
Channel layout              : C L R Ls Rs LFE
Sampling rate               : 48.0 kHz
Frame rate                  : 93.750 FPS (512 SPF)
Bit depth                   : 24 bits
Compression mode            : Lossy
Stream size                 : 739 MiB (11%)
Title                       : Dub [License]
Language                    : Russian
Default                     : Yes
Forced                      : Yes

Audio #2
ID                          : 3
Format                      : AC-3
Format/Info                 : Audio Coding 3
Commercial name             : Dolby Digital
Codec ID                    : A_AC3
Duration                    : 2 h 14 min
Bit rate mode               : Constant
Bit rate                    : 448 kb/s
Channel(s)                  : 6 channels
Channel layout              : L R C LFE Ls Rs
Sampling rate               : 48.0 kHz
Frame rate                  : 31.250 FPS (1536 SPF)
Bit depth                   : 16 bits
Compression mode            : Lossy
Stream size                 : 431 MiB (6%)
Title                       : Dub [License]
Language                    : Russian
Service kind                : Complete Main
Default                     : No
Forced                      : No

Audio #3
ID                          : 4
Format                      : AC-3
Format/Info                 : Audio Coding 3
Commercial name             : Dolby Digital
Codec ID                    : A_AC3
Duration                    : 2 h 14 min
Bit rate mode               : Constant
Bit rate                    : 448 kb/s
Channel(s)                  : 6 channels
Channel layout              : L R C LFE Ls Rs
Sampling rate               : 48.0 kHz
Frame rate                  : 31.250 FPS (1536 SPF)
Bit depth                   : 16 bits
Compression mode            : Lossy
Stream size                 : 431 MiB (6%)
Title                       : License
Language                    : Ukrainian
Service kind                : Complete Main
Default                     : No
Forced                      : No

Audio #4
ID                          : 5
Format                      : DTS ES
Format/Info                 : Digital Theater Systems
Commercial name             : DTS-ES Matrix
Codec ID                    : A_DTS
Duration                    : 2 h 14 min
Bit rate mode               : Constant
Bit rate                    : 1 509 kb/s
Channel(s)                  : 6 channels
Channel(s)_Original         : 7 channels
Channel layout              : C L R Ls Rs Cb LFE
Sampling rate               : 48.0 kHz
Frame rate                  : 93.750 FPS (512 SPF)
Bit depth                   : 24 bits
Compression mode            : Lossy
Stream size                 : 1.42 GiB (21%)
Title                       : Original
Language                    : English
Default                     : No
Forced                      : No

Text #1
ID                          : 6
Format                      : UTF-8
Codec ID                    : S_TEXT/UTF8
Codec ID/Info               : UTF-8 Plain Text
Duration                    : 2 h 13 min
Bit rate                    : 2 b/s
Count of elements           : 55
Stream size                 : 2.81 KiB (0%)
Title                       : Forced
Language                    : Russian
Default                     : Yes
Forced                      : Yes

Text #2
ID                          : 7
Format                      : UTF-8
Codec ID                    : S_TEXT/UTF8
Codec ID/Info               : UTF-8 Plain Text
Duration                    : 2 h 13 min
Bit rate                    : 72 b/s
Count of elements           : 1753
Stream size                 : 70.7 KiB (0%)
Title                       : Full
Language                    : Russian
Default                     : No
Forced                      : No

Text #3
ID                          : 8
Format                      : UTF-8
Codec ID                    : S_TEXT/UTF8
Codec ID/Info               : UTF-8 Plain Text
Duration                    : 2 h 13 min
Bit rate                    : 3 b/s
Count of elements           : 71
Stream size                 : 3.87 KiB (0%)
Title                       : Forced
Language                    : Ukrainian
Default                     : No
Forced                      : No

Text #4
ID                          : 9
Format                      : UTF-8
Codec ID                    : S_TEXT/UTF8
Codec ID/Info               : UTF-8 Plain Text
Duration                    : 2 h 13 min
Bit rate                    : 77 b/s
Count of elements           : 1753
Stream size                 : 75.4 KiB (0%)
Title                       : Full
Language                    : Ukrainian
Default                     : No
Forced                      : No

Text #5
ID                          : 10
Format                      : UTF-8
Codec ID                    : S_TEXT/UTF8
Codec ID/Info               : UTF-8 Plain Text
Duration                    : 2 h 11 min
Bit rate                    : 68 b/s
Count of elements           : 2268
Stream size                 : 65.6 KiB (0%)
Title                       : SDH
Language                    : English
Default                     : No
Forced                      : No

Text #6
ID                          : 11
Format                      : UTF-8
Codec ID                    : S_TEXT/UTF8
Codec ID/Info               : UTF-8 Plain Text
Duration                    : 2 h 11 min
Bit rate                    : 92 b/s
Count of elements           : 2269
Stream size                 : 88.9 KiB (0%)
Title                       : SDH Colored
Language                    : English
Default                     : No
Forced                      : No

Menu
00:00:00.000                : en:Chapter 01
00:03:48.728                : en:Chapter 02
00:07:45.465                : en:Chapter 03
00:11:16.593                : en:Chapter 04
00:17:41.811                : en:Chapter 05
00:21:03.179                : en:Chapter 06
00:27:24.184                : en:Chapter 07
00:33:34.846                : en:Chapter 08
00:37:22.282                : en:Chapter 09
00:45:24.013                : en:Chapter 10
00:52:19.595                : en:Chapter 11
00:56:57.205                : en:Chapter 12
01:03:11.413                : en:Chapter 13
01:10:44.991                : en:Chapter 14
01:15:25.730                : en:Chapter 15
01:21:45.901                : en:Chapter 16
01:26:59.172                : en:Chapter 17
01:32:18.199                : en:Chapter 18
01:36:43.923                : en:Chapter 19
01:43:25.574                : en:Chapter 20
01:50:23.283                : en:Chapter 21
01:54:22.898                : en:Chapter 22
02:00:41.109                : en:Chapter 23
02:07:53.332                : en:Chapter 24



Скриншоты:
[+] Всего файлов в раздаче - 1:
Bohemian.Rhapsody.2018.Lic.BDRip.720p.seleZen.mkv6.76 GB

Показать еще раздачи по запросу богемская:
2019-02-11 U Богемская рапсодия / Bohemian Rhapsody (2018) BDRip-HEVC 1080p от Kino-mix | Лицензия 7.59 GB ↑ 44 ↓ 16
2019-02-10 U Богемская рапсодия / Bohemian Rhapsody (2018) HDRip от Scarabey | Лицензия 2.17 GB ↑ 196 ↓ 44
2019-02-10 U Богемская рапсодия / Bohemian Rhapsody (2018) HDRip от Scarabey | Лицензия 1.45 GB ↑ 60 ↓ 21
2019-02-09 U Богемская рапсодия / Bohemian Rhapsody (2018) HDRip от Scarabey | Лицензия 794.77 MB ↑ 83 ↓ 12
2019-02-09 U Богемская рапсодия / Bohemian Rhapsody (2018) BDRip 1080p от qqss44 & MegaPeer | Лицензия 7.55 GB ↑ 123 ↓ 34
2019-02-08 U Богемская рапсодия / Bohemian Rhapsody (2018) BDRip 1080p от селезень | Лицензия 14.09 GB ↑ 85 ↓ 74
2019-02-08 U Богемская рапсодия / Bohemian Rhapsody (2018) BDRip от MegaPeer | Лицензия 2.18 GB ↑ 85 ↓ 27

Отзывы
Зарегистрируйтесь чтобы добавить комментарий.
Обратная связь
Copyleft ©