↑↓Torrent.by
Поиск
Логин: Регистрация
Пароль: Восстановить пароль
Загрузка...

Хартлок / Heartlock (2018) HDRip | L2

Скачать hartlok-heartlock-2018-hdrip-l2.torrent
U Магнитная ссылка Размер: 1.30 GB Раздают: 73 Качают: 18 Добавлен: 2019-02-08 13:43:11
Хартлок / Heartlock (2018) HDRip | L2

Название: Хартлок
Оригинальное название: Heartlock

Год выхода: 2018
Жанр: Драма, мелодрама, криминал
Режиссер: Джон Аарон
В ролях: Александр Дреймон, Лесли-Энн Брандт, Эрик Ларей Харви, Седрик Янг, Уэйн Дэвид Паркер, Жаклин Уильямс, Джейвон Андерсон, Джерлинд Бартис, Филлип Эдвард Ван Леар, Майкл Александр
О фильме:
Тюремный авторитет берёт под своё крыло молодого заключённого и учит его втираться в доверие к охранникам, чтобы получить нужные привилегии и шанс в будущем сбежать из тюрьмы.

Страна: США, Midnight Crew
Продолжительность: 01:32:39
Перевод: Любительский (двухголосый закадровый) | HiWay Grope

Файл
Кодек: XviD
Качество: HDRip
Видео: 720x304, 23.976 fps, ~1804 kbps, 0.34 bit/pixel
Звук:
Аудио rus: AC3, 48 kHz, 2 ch, 192 Kbps
Субтитры: отсутствуют

Реклама: присутствует

Семпл

Релиз от: HiWay Grope


[+] MediaInfo:

General
Complete name                            : D:Heartlock.2018.HDRip.HiWayGropeHeartlock.2018.HDRip.HiWayGrope.avi
Format                                   : AVI
Format/Info                              : Audio Video Interleave
Format profile                           : OpenDML
File size                                : 1.30 GiB
Duration                                 : 1 h 32 min
Overall bit rate                         : 2 003 kb/s
Writing application                      : Lavf57.71.100

Video
ID                                       : 0
Format                                   : MPEG-4 Visual
Format profile                           : Advanced Simple@L5
Format settings, BVOP                    : No
Format settings, QPel                    : No
Format settings, GMC                     : No warppoints
Format settings, Matrix                  : Default (H.263)
Codec ID                                 : XVID
Codec ID/Hint                            : XviD
Duration                                 : 1 h 32 min
Bit rate                                 : 1 799 kb/s
Width                                    : 720 pixels
Height                                   : 304 pixels
Display aspect ratio                     : 2.35:1
Frame rate                               : 23.976 (24000/1001) FPS
Color space                              : YUV
Chroma subsampling                       : 4:2:0
Bit depth                                : 8 bits
Scan type                                : Progressive
Compression mode                         : Lossy
Bits/(Pixel*Frame)                       : 0.343
Stream size                              : 1.16 GiB (90%)
Title                                    : Alias Data Handler
Writing library                          : XviD 67

Audio
ID                                       : 1
Format                                   : AC-3
Format/Info                              : Audio Coding 3
Commercial name                          : Dolby Digital
Codec ID                                 : 2000
Duration                                 : 1 h 32 min
Bit rate mode                            : Constant
Bit rate                                 : 192 kb/s
Channel(s)                               : 2 channels
Channel layout                           : L R
Sampling rate                            : 48.0 kHz
Frame rate                               : 31.250 FPS (1536 SPF)
Bit depth                                : 16 bits
Compression mode                         : Lossy
Stream size                              : 127 MiB (10%)
Alignment                                : Aligned on interleaves
Interleave, duration                     : 32  ms (0.77 video frame)
Service kind                             : Complete Main




Скриншоты:
[+] Всего файлов в раздаче - 1:
Heartlock.2018.HDRip.HiWayGrope.avi1.30 GB

Отзывы
Зарегистрируйтесь чтобы добавить комментарий.
Обратная связь
Copyleft ©