↑↓Torrent.by
Поиск
Логин: Регистрация
Пароль: Восстановить пароль
Загрузка...

За витриной [01-16 из 16] (2018) WEBRip от Files-x

Скачать za-vitrinoy-01-16-iz-2018-webrip-ot-files-x.torrent
U Магнитная ссылка Размер: 9.49 GB Раздают: 53 Качают: 145 Добавлен: 2019-02-08 13:43:22
За витриной [01-16 из 16] (2018) WEBRip от Files-x

Оригинальное название: За витриной
Год выхода: 2018
Жанр: Мелодрама
Режиссер: Мила Погребиская
В ролях: Сергей Басок, Елизавета Фалей, Ксения Мишина, Наталия Денисенко, Андрей Фединчик, Анна Лебедева, Ольга Радчук, Оксана Сташенко, Константин Данилюк, Дмитрий Чернов (II), Дмитрий Сарансков, Всеволод Шекита, Глеб Михайличенко, Вероника Братусина, Владимир Гончаров (III), Елена Светлицкая, Антонина Макарчук, Екатерина Вайвала

О фильме:
Предприниматель Андрей Ветров владеет сетью модных магазинов в столице и по всей стране. Молодой красавец – жесткий бизнесмен, завидный жених и любимец роскошных женщин. Но ему не дает покоя бедная провинциалка Галя – незаметная продавщица, которая отчаянно пытается выбиться из нищеты и прокормить двух своих братьев...

Страна: Украина
Студия: Artforms production
Продолжительность: 16 х 00:47:00
Перевод: Не требуется

Файл
Кодек: XviD
Качество: WEBRip
Видео: XviD, ~ 1609 Кбит/с, 720x400, 25 кадр/с
Звук: AC3, 2 ch, 192 Кбит/с

Релиз:


[+] MediaInfo

General
Complete name                    : C:01.За витриной.(2018).WEBRip.by.Nicodem.Files-x.avi
Format                           : AVI
Format/Info                      : Audio Video Interleave
File size                        : 608 MiB
Duration                         : 46mn 59s
Overall bit rate                 : 1 811 Kbps
Writing application              : VirtualDubMod 1.5.10.3 | www.virtualdub-fr.org || (build 2550/release)
Writing library                  : VirtualDubMod build 2550/release

Video
ID                               : 0
Format                           : MPEG-4 Visual
Format profile                   : Advanced Simple@L5
Format settings, BVOP            : 1
Format settings, QPel            : No
Format settings, GMC             : No warppoints
Format settings, Matrix          : Custom
Codec ID                         : XVID
Codec ID/Hint                    : XviD
Duration                         : 46mn 59s
Bit rate                         : 1 609 Kbps
Width                            : 720 pixels
Height                           : 400 pixels
Display aspect ratio             : 16:9
Frame rate                       : 25.000 fps
Color space                      : YUV
Chroma subsampling               : 4:2:0
Bit depth                        : 8 bits
Scan type                        : Progressive
Compression mode                 : Lossy
Bits/(Pixel*Frame)               : 0.223
Stream size                      : 541 MiB (89%)
Writing library                  : XviD 73

Audio
ID                               : 1
Format                           : AC-3
Format/Info                      : Audio Coding 3
Mode extension                   : CM (complete main)
Codec ID                         : 2000
Duration                         : 46mn 59s
Bit rate mode                    : Constant
Bit rate                         : 192 Kbps
Channel(s)                       : 2 channels
Channel positions                : Front: L R
Sampling rate                    : 48.0 KHz
Bit depth                        : 16 bits
Compression mode                 : Lossy
Stream size                      : 64.5 MiB (11%)
Alignment                        : Split accross interleaves
Interleave, duration             : 40 ms (1.00 video frame)
Interleave, preload duration     : 500 ms



Скриншоты:
[+] Всего файлов в раздаче - 16:
14.За витриной.(2018).WEBRip.by.Nicodem.Files-x.avi590.96 MB
08.За витриной.(2018).WEBRip.by.Nicodem.Files-x.avi607.79 MB
15.За витриной.(2018).WEBRip.by.Nicodem.Files-x.avi608.30 MB
10.За витриной.(2018).WEBRip.by.Nicodem.Files-x.avi608.47 MB
04.За витриной.(2018).WEBRip.by.Nicodem.Files-x.avi608.48 MB
01.За витриной.(2018).WEBRip.by.Nicodem.Files-x.avi608.49 MB
02.За витриной.(2018).WEBRip.by.Nicodem.Files-x.avi608.50 MB
05.За витриной.(2018).WEBRip.by.Nicodem.Files-x.avi608.53 MB
16.За витриной.(2018).WEBRip.by.Nicodem.Files-x.avi608.59 MB
06.За витриной.(2018).WEBRip.by.Nicodem.Files-x.avi608.62 MB
12.За витриной.(2018).WEBRip.by.Nicodem.Files-x.avi608.64 MB
13.За витриной.(2018).WEBRip.by.Nicodem.Files-x.avi608.67 MB
11.За витриной.(2018).WEBRip.by.Nicodem.Files-x.avi608.72 MB
03.За витриной.(2018).WEBRip.by.Nicodem.Files-x.avi608.93 MB
07.За витриной.(2018).WEBRip.by.Nicodem.Files-x.avi609.09 MB
09.За витриной.(2018).WEBRip.by.Nicodem.Files-x.avi609.32 MB

Похожие раздачи по запросу - витриной:
2019-02-09 U За витриной [01-16 из 16] (2018) WEBRip-AVC от Files-x 9.30 GB ↑ 29 ↓ 33
2019-02-07 U За витриной [01-14 из 16] (2018) WEBRip от Files-x 8.30 GB ↑ 42 ↓ 73
2019-02-06 U За витриной [01-12 из 16] (2018) WEBRip от Files-x 7.13 GB ↑ 42 ↓ 65

Отзывы
Зарегистрируйтесь чтобы добавить комментарий.
Обратная связь
Copyleft ©