↑↓Torrent.by
Поиск
Логин: Регистрация
Пароль: Восстановить пароль
Загрузка...

Богемская рапсодия / Bohemian Rhapsody (2018) BDRip 1080p от qqss44 & MegaPeer | Лицензия

Скачать bogemskaya-rapsodiya-bohemian-rhapsody-2018-bdrip-1080p-ot-qqss44-megapeer-licenziya.torrent
U Магнитная ссылка Размер: 7.55 GB Раздают: 123 Качают: 34 Добавлен: 2019-02-09 05:18:16
Богемская рапсодия / Bohemian Rhapsody (2018) BDRip 1080p от qqss44 & MegaPeer | Лицензия

Информация о фильме
Название: Богемская рапсодия
Оригинальное название: Bohemian Rhapsody
Год выпуска: 2018
Жанр: Драма, биография, музыка
Режиссер: Брайан Сингер
В ролях: Рами Малек, Люси Бойнтон, Гвилим Ли, Бен Харди, Джозеф Маццелло, Майк Майерс, Эйден Гиллен, Том Холландер, Аллен Лич, Аарон МакКаскер, Эйс Бхатти, Прия Блэкберн, Дермот Мерфи, Тим Плестер, Дики Бо

О фильме:
Чествование группы Queen, их музыки и их выдающегося вокалиста Фредди Меркьюри, который бросил вызов стереотипам и победил условности, чтобы стать одним из самых любимых артистов на планете. Фильм прослеживает головокружительный путь группы к успеху, благодаря их культовым песням и революционному звуку, практически распад коллектива, поскольку образ жизни Меркьюри выходит из-под контроля, и их триумфальное воссоединение накануне концерта Live Aid, ставшим одним из величайших выступлений в истории рок-музыки.

Страна: Великобритания, США
Студия: GK Films, New Regency Pictures, Queen Films Ltd.
Продолжительность: 02:14:37
Перевод: Дублированный | Лицензия

Файл
Формат: MKV, BDRip 1080p
Видео: MPEG-4 AVC, 7600 Кбит/с, 1920x804
Aудио#1: [RUS] AC3 | 48 KHz | 5.1 (Front: L С R Side: L R) + LFE | ~448 kbps
Субтитры: русские форсированные (стилизованные, анимированные, вшиты в видео) + полные
Релиз от:


[+] МИ

Общее
Уникальный идентификатор                 : 199769865692260392518640660603232013602 (0x964A46D15FC004FCA5BDA4E51A934D22)
Полное имя                               : H:Bohemian.Rhapsody.(2018).BDRip-1080p.MegaPeer.(qqss44).mkv
Формат                                   : Matroska
Версия формата                           : Version 2
Размер файла                             : 7,55 Гбайт
Продолжительность                        : 2 ч. 14 м.
Общий поток                              : 8026 Кбит/сек
Название фильма                          : Bohemian.Rhapsody.(2018).BDRip-1080p.MegaPeer.(qqss44)
Дата кодирования                         : UTC 2019-02-08 09:02:53
Программа кодирования                    : mkvmerge v7.8.0 ('River Man') 32bit built on Apr  3 2015 12:11:22
Библиотека кодирования                   : libebml v1.3.1 + libmatroska v1.4.2

Видео
Идентификатор                            : 1
Формат                                   : AVC
Формат/Информация                        : Advanced Video Codec
Профиль формата                          : High@L4.1
Параметр CABAC формата                   : Да
Параметр ReFrames формата                : 5 кадров
Идентификатор кодека                     : V_MPEG4/ISO/AVC
Продолжительность                        : 2 ч. 14 м.
Битрейт                                  : 7600 Кбит/сек
Ширина                                   : 1920 пикселей
Высота                                   : 804 пикселя
Соотношение сторон                       : 2,40:1
Режим частоты кадров                     : Постоянный
Частота кадров                           : 23,976 (24000/1001) кадра/сек
Цветовое пространство                    : YUV
Субдискретизация насыщенности            : 4:2:0
Битовая глубина                          : 8 бит
Тип развёртки                            : Прогрессивная
Бит/(Пиксели*Кадры)                      : 0.205
Размер потока                            : 6,98 Гбайт (92%)
Библиотека кодирования                   : x264 core 152 r2851 ba24899
Настройки программы                      : cabac=1 / ref=5 / deblock=1:-3:-3 / analyse=0x3:0x113 / me=umh / subme=11 / psy=1 / psy_rd=1.00:0.00 / mixed_ref=1 / me_range=32 / chroma_me=1 / trellis=2 / 8x8dct=1 / cqm=0 / deadzone=21,11 / fast_pskip=0 / chroma_qp_offset=-2 / threads=12 / lookahead_threads=2 / sliced_threads=0 / nr=0 / decimate=0 / interlaced=0 / bluray_compat=0 / constrained_intra=0 / bframes=9 / b_pyramid=2 / b_adapt=2 / b_bias=0 / direct=3 / weightb=1 / open_gop=0 / weightp=2 / keyint=250 / keyint_min=23 / scenecut=40 / intra_refresh=0 / rc_lookahead=40 / rc=2pass / mbtree=0 / bitrate=7600 / ratetol=1.0 / qcomp=0.69 / qpmin=0 / qpmax=69 / qpstep=4 / cplxblur=20.0 / qblur=0.5 / vbv_maxrate=50000 / vbv_bufsize=62500 / nal_hrd=none / filler=0 / ip_ratio=1.40 / pb_ratio=1.30 / aq=3:0.80
Язык                                     : English
Default                                  : Да
Forced                                   : Нет

Аудио
Идентификатор                            : 2
Формат                                   : AC-3
Формат/Информация                        : Audio Coding 3
Расширение режима                        : CM (complete main)
Параметр Endianness формата              : Big
Идентификатор кодека                     : A_AC3
Продолжительность                        : 2 ч. 14 м.
Вид битрейта                             : Постоянный
Битрейт                                  : 448 Кбит/сек
Каналы                                   : 6 каналов
Расположение каналов                     : Front: L C R, Side: L R, LFE
Частота                                  : 48,0 КГц
Частота кадров                           : 31,250 кадров/сек (1536 spf)
Метод сжатия                             : С потерями
Размер потока                            : 431 Мбайт (6%)
Язык                                     : Russian
Default                                  : Да
Forced                                   : Нет

Текст
Идентификатор                            : 3
Формат                                   : UTF-8
Идентификатор кодека                     : S_TEXT/UTF8
Идентификатор кодека/Информация          : UTF-8 Plain Text
Заголовок                                : FULL
Язык                                     : Russian
Default                                  : Нет
Forced                                   : Нет

Меню
00:00:00.000                             : en:Chapter 01
00:03:48.728                             : en:Chapter 02
00:07:45.465                             : en:Chapter 03
00:11:16.593                             : en:Chapter 04
00:17:41.811                             : en:Chapter 05
00:21:03.179                             : en:Chapter 06
00:27:24.184                             : en:Chapter 07
00:33:34.846                             : en:Chapter 08
00:37:22.282                             : en:Chapter 09
00:45:24.013                             : en:Chapter 10
00:52:19.595                             : en:Chapter 11
00:56:57.205                             : en:Chapter 12
01:03:11.413                             : en:Chapter 13
01:10:44.991                             : en:Chapter 14
01:15:25.730                             : en:Chapter 15
01:21:45.901                             : en:Chapter 16
01:26:59.172                             : en:Chapter 17
01:32:18.199                             : en:Chapter 18
01:36:43.923                             : en:Chapter 19
01:43:25.574                             : en:Chapter 20
01:50:23.283                             : en:Chapter 21
01:54:22.898                             : en:Chapter 22
02:00:41.109                             : en:Chapter 23
02:07:53.332                             : en:Chapter 24




Скриншоты:
[+] Всего файлов в раздаче - 1:
Bohemian.Rhapsody.(2018).BDRip-1080p.MegaPeer.(qqss44).mkv7.55 GB

Показать еще раздачи по запросу богемская:
2019-02-11 U Богемская рапсодия / Bohemian Rhapsody (2018) BDRip-HEVC 1080p от Kino-mix | Лицензия 7.59 GB ↑ 44 ↓ 16
2019-02-10 U Богемская рапсодия / Bohemian Rhapsody (2018) HDRip от Scarabey | Лицензия 2.17 GB ↑ 204 ↓ 44
2019-02-10 U Богемская рапсодия / Bohemian Rhapsody (2018) HDRip от Scarabey | Лицензия 1.45 GB ↑ 60 ↓ 21
2019-02-09 U Богемская рапсодия / Bohemian Rhapsody (2018) HDRip от Scarabey | Лицензия 794.77 MB ↑ 86 ↓ 12
2019-02-08 U Богемская рапсодия / Bohemian Rhapsody (2018) BDRip 1080p от селезень | Лицензия 14.09 GB ↑ 85 ↓ 74
2019-02-08 U Богемская рапсодия / Bohemian Rhapsody (2018) BDRip 720p от селезень | Лицензия 6.76 GB ↑ 79 ↓ 55
2019-02-08 U Богемская рапсодия / Bohemian Rhapsody (2018) BDRip от MegaPeer | Лицензия 2.18 GB ↑ 85 ↓ 27

Отзывы
Зарегистрируйтесь чтобы добавить комментарий.
Обратная связь
Copyleft ©