↑↓Torrent.by
Поиск
Логин: Регистрация
Пароль: Восстановить пароль
Загрузка...

30 безумных желаний / Then Came You (2018) WEB-DL 1080p от OlLanDGroup | HDRezka Studio

Скачать 30-bezumnyh-zhelaniy-then-came-you-2018-web-dl-1080p-ot-ollandgroup-hdrezka-studio.torrent
U Магнитная ссылка Размер: 3.48 GB Раздают: 328 Качают: 79 Добавлен: 2019-02-09 05:20:05
30 безумных желаний / Then Came You (2018) WEB-DL 1080p от OlLanDGroup | HDRezka Studio

30 безумных желаний / Then Came You
«Жить одним мгновеньем веселей вдвоем»

Год выпуска: 2018
Страна: США
Производство: BCDF Pictures, Hudsucker Moving Pictures
Жанр:  Драма, комедия, приключения

Режиссёр: Питер Хатчингс
В ролях: Эйса Баттерфилд, Нина Добрев, Мэйси Уильямс, Пейтон Лист, Кен Жонг, Тайлер Хэклин, Соня Уолгер, Дэвид Кёкнер, Титус Берджесс, Бриана Венскус

Перевод: Профессиональный многоголосый | [HDRezka Studio]
Субтитры: Английские (полные, SDH)
Реклама: Отсутствует

Описание: Девятнадцатилетний ипохондрик Кельвин, работающий в аэропорту, боится большинства вещей в жизни и абсолютно уверен в том, что скоро умрет. Несмотря на это, все его многочисленные походы к врачу оканчиваются одним вердиктом: здоров. Но однажды жизнь Кельвина меняется, когда на групповой терапии для больных раком людей он знакомится с семнадцатилетней Скай – жизнерадостной и импульсивной девушкой с неизлечимой болезнью, которая желает провести оставшееся время с пользой. Для этого она составляет список безумных желаний и, заручившись поддержкой Кельвина, начинает их исполнять. Это приключение принесет обоим героям множество незабываемых впечатлений и невероятных эмоций…

Качество: WEB-DL 1080p | iTunes Version |
Продолжительность: 01:36:49

Формат: MKV
Видео кодек: MPEG-4 AVC
Аудио кодек: AC3
Видео: 1912x796 (2.40:1), 23,976 fps, x264 ~4 573 kbps avg, 0.125 bit/pixel
Аудио #1: 48 kHz, AC3 Dolby Digital, 2 (L,R) ch, ~192.00 kbps avg | RUS (HDRezka Studio)
Аудио #2: 48 kHz, AC3 Dolby Digital, 3/2 (L,C,R,l,r) + LFE ch, ~384.00 kbps avg | ENG

Дата премьеры (мир): 12 октября 2018
Дата премьеры (РФ): 21 февраля 2019, «MEGOGO Distribution»
Цифровой релиз:

Релиз:


[+] MediaInfo

Общее
Уникальный идентификатор                 : 169179275650331808413893604395993679322 (0x7F46BE488BE6FC17ABFCBEE7614245DA)
Полное имя                               : F:OlLanDGroupThen.Came.You.2018.WEB-DL(1080p).OlLanDGroup.mkv
Формат                                   : Matroska
Версия формата                           : Version 4 / Version 2
Размер файла                             : 3,48 Гбайт
Продолжительность                        : 1 ч. 36 м.
Общий поток                              : 5150 Кбит/сек
Название фильма                          : Then.Came.You.2018   #TorpedoUK#
Дата кодирования                         : UTC 2019-02-08 14:37:03
Программа кодирования                    : mkvmerge v29.0.0 ('Like It Or Not') 64-bit
Библиотека кодирования                   : libebml v1.3.6 + libmatroska v1.4.9

Видео
Идентификатор                            : 1
Формат                                   : AVC
Формат/Информация                        : Advanced Video Codec
Профиль формата                          : High@L4
Параметр CABAC формата                   : Да
Параметр ReFrames формата                : 5 кадров
Идентификатор кодека                     : V_MPEG4/ISO/AVC
Продолжительность                        : 1 ч. 36 м.
Битрейт                                  : 4573 Кбит/сек
Ширина                                   : 1912 пикселей
Высота                                   : 796 пикселей
Соотношение сторон                       : 2,40:1
Режим частоты кадров                     : Постоянный
Частота кадров                           : 23,976 (23976/1000) кадра/сек
Цветовое пространство                    : YUV
Субдискретизация насыщенности            : 4:2:0
Битовая глубина                          : 8 бит
Тип развёртки                            : Прогрессивная
Бит/(Пиксели*Кадры)                      : 0.125
Размер потока                            : 3,09 Гбайт (89%)
Заголовок                                : Then.Came.You.2018.1080p.WEB-DL.DD5.1.H264-FGT
Язык                                     : English
Default                                  : Да
Forced                                   : Нет
Цветовой диапазон                        : Limited
Основные цвета                           : BT.709
Характеристики трансфера                 : BT.709
Коэффициенты матрицы                     : BT.709

Аудио #1
Идентификатор                            : 2
Формат                                   : AC-3
Формат/Информация                        : Audio Coding 3
Расширение режима                        : CM (complete main)
Параметр Endianness формата              : Big
Идентификатор кодека                     : A_AC3
Продолжительность                        : 1 ч. 36 м.
Вид битрейта                             : Постоянный
Битрейт                                  : 192 Кбит/сек
Каналы                                   : 2 канала
Расположение каналов                     : Front: L R
Частота                                  : 48,0 КГц
Частота кадров                           : 31,250 кадров/сек (1536 spf)
Битовая глубина                          : 16 бит
Метод сжатия                             : С потерями
Задержка видео                           : -42 мс.
Размер потока                            : 133 Мбайт (4%)
Заголовок                                : MVO [HDRezka Studio]
Язык                                     : Russian
Default                                  : Да
Forced                                   : Нет

Аудио #2
Идентификатор                            : 3
Формат                                   : AC-3
Формат/Информация                        : Audio Coding 3
Расширение режима                        : CM (complete main)
Параметр Endianness формата              : Big
Идентификатор кодека                     : A_AC3
Продолжительность                        : 1 ч. 36 м.
Вид битрейта                             : Постоянный
Битрейт                                  : 384 Кбит/сек
Каналы                                   : 6 каналов
Расположение каналов                     : Front: L C R, Side: L R, LFE
Частота                                  : 48,0 КГц
Частота кадров                           : 31,250 кадров/сек (1536 spf)
Битовая глубина                          : 16 бит
Метод сжатия                             : С потерями
Задержка видео                           : -42 мс.
Размер потока                            : 266 Мбайт (7%)
Заголовок                                : [Original]
Язык                                     : English
Default                                  : Нет
Forced                                   : Нет

Текст #1
Идентификатор                            : 4
Формат                                   : UTF-8
Идентификатор кодека                     : S_TEXT/UTF8
Идентификатор кодека/Информация          : UTF-8 Plain Text
Продолжительность                        : 1 ч. 32 м.
Битрейт                                  : 48 бит/сек
Count of elements                        : 1160
Размер потока                            : 32,8 Кбайт (0%)
Заголовок                                : Full
Язык                                     : English
Default                                  : Нет
Forced                                   : Нет

Текст #2
Идентификатор                            : 5
Формат                                   : UTF-8
Идентификатор кодека                     : S_TEXT/UTF8
Идентификатор кодека/Информация          : UTF-8 Plain Text
Продолжительность                        : 1 ч. 36 м.
Битрейт                                  : 61 бит/сек
Count of elements                        : 1471
Размер потока                            : 43,4 Кбайт (0%)
Заголовок                                : SDH
Язык                                     : English
Default                                  : Нет
Forced                                   : Нет

Меню
00:00:00.000                             : en:1
00:09:41.831                             : en:2
00:20:11.669                             : en:3
00:31:47.197                             : en:4
00:38:47.617                             : en:5
00:51:08.941                             : en:6
01:00:43.598                             : en:7
01:10:56.168                             : en:8
01:20:04.299                             : en:9
01:33:15.423                             : en:10



Скриншоты:
[+] Всего файлов в раздаче - 1:
Then.Came.You.2018.WEB-DL(1080p).OlLanDGroup.mkv3.48 GB

Похожие раздачи по запросу - безумных:
2019-02-09 U 30 безумных желаний / Then Came You (2018) WEB-DLRip от MegaPeer | HDRezka Studio 1.46 GB ↑ 184 ↓ 50

Отзывы
Odysseuss
хороший добрый фильм для неиспорченных трешами

Зарегистрируйтесь чтобы добавить комментарий.
Обратная связь
Copyleft ©