↑↓Torrent.by
Поиск
Логин: Регистрация
Пароль: Восстановить пароль
Загрузка...

По обмену / Deadly Switch / Foreign Exchange (2019) WEBRip 1080p от OlLanDGroup | HDRezka Studio

Скачать po-obmenu-deadly-switch-foreign-exchange-2019-webrip-1080p-ot-ollandgroup-hdrezka-studio.torrent
U Магнитная ссылка Размер: 3.20 GB Раздают: 40 Качают: 21 Добавлен: 2019-02-09 05:22:43
По обмену / Deadly Switch / Foreign Exchange (2019) WEBRip 1080p от OlLanDGroup | HDRezka Studio

По обмену / Deadly Switch / Foreign Exchange

Год выпуска: 2019
Страна: США
Производство: Headlong Entertainment, Ana Pictures, Benattar/Thomas Productions
Жанр:  Триллер

Режиссёр: Светлана Цветко
В ролях: Хейли МакЛафлин, Даника Ярош, Дилан Уолш, Тери Поло, Мэтт Пассмор, Боти Блисс, Хезер Мазур, Брайс Дарфи, Эшлин Пирс, Кэрри Гибсон

Перевод: Профессиональный многоголосый | [HDRezka Studio]
Субтитры: Английские (полные)
Реклама: Отсутствует

Описание: В центре сюжета оказывается Ана — молодая студентка, приехавшая в США на обучение по программе обмена. Однажды вечером, возвращаясь из бара домой, Ана замечает, что её кто-то преследует. К счастью, проходящая мимо девушка помогает ей избавиться от таинственного преследователя. Моника, её новая знакомая, проводит Ану домой, а через некоторое время, предлагает ей в целях безопасности переехать в дом к её родителям. Родители Моники оказываются милыми и гостеприимными людьми, но вскоре Ана начинает замечать странности в их поведении...

Качество: WEBRip 1080p | NETFLIX Version |
Продолжительность: 01:26:07

Формат: MKV
Видео кодек: MPEG-4 AVC
Аудио кодек: AC3
Видео: 1920x1080 (16:9), 23,976 fps, x264 ~4 745 kbps avg, 0.095 bit/pixel
Аудио #1: 48 kHz, AC3 Dolby Digital, 2 (L,R) ch, ~192.00 kbps avg | RUS (HDRezka Studio)
Аудио #2: 48 kHz, AC3 Dolby Digital, 3/2 (L,C,R,l,r) + LFE ch, ~384.00 kbps avg | ENG

Дата премьеры (мир): 15 January 2019
Дата премьеры (РФ):
Цифровой релиз:

Релиз:


[+] MediaInfo

Общее
Уникальный идентификатор                 : 100375201388524347596975066889153714735 (0x4B838F83AA5D1577E6F325294BF09A2F)
Полное имя                               : F:OlLanDGroupDeadly.Switch.2019.WEB-DL(1080p).OlLanDGroup.mkv
Формат                                   : Matroska
Версия формата                           : Version 4 / Version 2
Размер файла                             : 3,20 Гбайт
Продолжительность                        : 1 ч. 26 м.
Режим общего битрейта                    : Переменный
Общий поток                              : 5323 Кбит/сек
Название фильма                          : Deadly.Switch.2019   #TorpedoUK#
Дата кодирования                         : UTC 2019-02-08 16:36:46
Программа кодирования                    : mkvmerge v29.0.0 ('Like It Or Not') 64-bit
Библиотека кодирования                   : libebml v1.3.6 + libmatroska v1.4.9

Видео
Идентификатор                            : 1
Формат                                   : AVC
Формат/Информация                        : Advanced Video Codec
Профиль формата                          : High@L4
Параметр CABAC формата                   : Да
Параметр ReFrames формата                : 4 кадра
Идентификатор кодека                     : V_MPEG4/ISO/AVC
Продолжительность                        : 1 ч. 26 м.
Вид битрейта                             : Переменный
Битрейт                                  : 4745 Кбит/сек
Максимальный битрейт                     : 20,0 Мбит/сек
Ширина                                   : 1920 пикселей
Высота                                   : 1080 пикселей
Соотношение сторон                       : 16:9
Режим частоты кадров                     : Постоянный
Частота кадров                           : 23,976 (24000/1001) кадра/сек
Цветовое пространство                    : YUV
Субдискретизация насыщенности            : 4:2:0
Битовая глубина                          : 8 бит
Тип развёртки                            : Прогрессивная
Бит/(Пиксели*Кадры)                      : 0.095
Размер потока                            : 2,85 Гбайт (89%)
Библиотека кодирования                   : x264 core 148 r2715 7e75228
Настройки программы                      : cabac=1 / ref=4 / deblock=1:0:0 / analyse=0x3:0x111 / me=umh / subme=10 / psy=1 / psy_rd=1.00:0.00 / mixed_ref=1 / me_range=120 / chroma_me=1 / trellis=2 / 8x8dct=1 / cqm=0 / deadzone=21,11 / fast_pskip=1 / chroma_qp_offset=-2 / threads=8 / lookahead_threads=2 / sliced_threads=0 / nr=0 / decimate=1 / interlaced=0 / bluray_compat=0 / stitchable=1 / constrained_intra=0 / bframes=16 / b_pyramid=2 / b_adapt=2 / b_bias=0 / direct=3 / weightb=1 / open_gop=0 / weightp=2 / keyint=240 / keyint_min=121 / scenecut=0 / intra_refresh=0 / rc_lookahead=240 / rc=crf / mbtree=1 / crf=16.0 / qcomp=0.50 / qpmin=6 / qpmax=51 / qpstep=4 / vbv_maxrate=20000 / vbv_bufsize=25000 / crf_max=0.0 / nal_hrd=vbr / filler=0 / ip_ratio=1.40 / aq=1:0.80
Default                                  : Да
Forced                                   : Нет

Аудио #1
Идентификатор                            : 2
Формат                                   : AC-3
Формат/Информация                        : Audio Coding 3
Расширение режима                        : CM (complete main)
Параметр Endianness формата              : Big
Идентификатор кодека                     : A_AC3
Продолжительность                        : 1 ч. 26 м.
Вид битрейта                             : Постоянный
Битрейт                                  : 192 Кбит/сек
Каналы                                   : 2 канала
Расположение каналов                     : Front: L R
Частота                                  : 48,0 КГц
Частота кадров                           : 31,250 кадров/сек (1536 spf)
Битовая глубина                          : 16 бит
Метод сжатия                             : С потерями
Размер потока                            : 118 Мбайт (4%)
Заголовок                                : MVO [HDRezka Studio]
Язык                                     : Russian
Default                                  : Да
Forced                                   : Нет

Аудио #2
Идентификатор                            : 3
Формат                                   : AC-3
Формат/Информация                        : Audio Coding 3
Расширение режима                        : CM (complete main)
Параметр Endianness формата              : Big
Идентификатор кодека                     : A_AC3
Продолжительность                        : 1 ч. 26 м.
Вид битрейта                             : Постоянный
Битрейт                                  : 384 Кбит/сек
Каналы                                   : 6 каналов
Расположение каналов                     : Front: L C R, Side: L R, LFE
Частота                                  : 48,0 КГц
Частота кадров                           : 31,250 кадров/сек (1536 spf)
Битовая глубина                          : 16 бит
Метод сжатия                             : С потерями
Размер потока                            : 237 Мбайт (7%)
Заголовок                                : [Original]
Язык                                     : English
Default                                  : Нет
Forced                                   : Нет

Текст
Идентификатор                            : 4
Формат                                   : UTF-8
Идентификатор кодека                     : S_TEXT/UTF8
Идентификатор кодека/Информация          : UTF-8 Plain Text
Продолжительность                        : 1 ч. 25 м.
Битрейт                                  : 57 бит/сек
Count of elements                        : 1301
Размер потока                            : 36,5 Кбайт (0%)
Заголовок                                : English
Язык                                     : English
Default                                  : Нет
Forced                                   : Нет



Скриншоты:
[+] Всего файлов в раздаче - 1:
Deadly.Switch.2019.WEB-DL(1080p).OlLanDGroup.mkv3.20 GB

Показать еще раздачи по запросу обмену:
2019-01-27 U По обмену / Foreign Exchange / Deadly Switch (2019) WEBRip | L2 1.21 GB ↑ 74 ↓ 33
2018-09-11 U Судьба обмену не подлежи [01-04 из 04] (2018) WEBRip-AVC от Files-x 2.33 GB ↑ 109 ↓ 19
2018-05-29 U Жена по обмену [01-04 из 04] (2018) WEBRip от Files-x 2.35 GB ↑ 47 ↓ 27
2018-05-28 U Жена по обмену [01-04 из 04] (2018) SATRip-AVC от Files-x 2.08 GB ↑ 47 ↓ 33
2018-05-28 U Жена по обмену [01-04 из 04] (2018) WEBRip от GeneralFilm 2.17 GB ↑ 59 ↓ 47
2018-05-28 U Жена по обмену [01-04 из 04] (2018) WEBRip-AVC от Files-x 2.25 GB ↑ 69 ↓ 39
2014-02-22 U Свадьба по обмену (2011) BDRip-AVC | Лицензия 1.43 GB ↑ 104 ↓ 51

Отзывы
Зарегистрируйтесь чтобы добавить комментарий.
Обратная связь
Copyleft ©