↑↓Torrent.by
Поиск
Логин: Регистрация
Пароль: Восстановить пароль
Загрузка...

Голем: Начало / The Golem (2018) WEBRip 720p | L2

Скачать golem-nachalo-the-2018-webrip-720p-l2.torrent
U Магнитная ссылка Размер: 2.08 GB Раздают: 76 Качают: 57 Добавлен: 2019-02-09 11:46:47
Голем: Начало / The Golem (2018) WEBRip 720p | L2

Название: Голем: Начало
Оригинальное название: The Golem

Год выхода: 2018
Жанр: Ужасы
Режиссер: Дорон Пас, Йоав Пас
В ролях: Хани Фюрстенберг, Ишай Голан, Брини Фюрстенберг, Эди Кветнер, Ленни Равич, Ольга Сафронова
О фильме:
Литва, 1673 год. Селянка Ханна уже семь лет скорбит об умершем сыне и находит утешение в изучении священных еврейских писаний. Когда её деревне начинает угрожать опасность вторжения, Ханна решает провести магический ритуал и создаёт чудовище - голема. Последствия этого неоднозначного поступка коснутся всех местных жителей.

Страна: Израиль
Продолжительность: 01:35:16
Перевод: Любительский (двухголосый закадровый) | HiWay Grope

Файл
Кодек: MPEG-4 AVC/x.264
Качество: WEBRip 720p
Видео: 1280x544, 23.976 fps, ~2936 kbps, 0.176 bit/pixel
Звук:
Аудио rus: AC3, 48 kHz, 2 ch, 192 Kbps
Субтитры: отсутствуют

Реклама: присутствует

Семпл

Релиз от: HiWay Grope


[+] MediaInfo:

General
Unique ID                                : 318603540080407468234815444612108870719 (0xEFB0CF508D1A8DC33C6079E05BA9643F)
Complete name                            : D:The.Golem.2018.720p.WEBRip.HiWayGropeThe.Golem.2018.720p.WEBRip.HiWayGrope.mkv
Format                                   : Matroska
Format version                           : Version 4
File size                                : 2.08 GiB
Duration                                 : 1 h 35 min
Overall bit rate mode                    : Variable
Overall bit rate                         : 3 130 kb/s
Encoded date                             : UTC 2019-02-09 03:30:45
Writing application                      : mkvmerge v25.0.0 ('Prog Noir') 64-bit
Writing library                          : libebml v1.3.6 + libmatroska v1.4.9

Video
ID                                       : 1
Format                                   : AVC
Format/Info                              : Advanced Video Codec
Format profile                           : High@L5
Format settings                          : CABAC / 4 Ref Frames
Format settings, CABAC                   : Yes
Format settings, RefFrames               : 4 frames
Codec ID                                 : V_MPEG4/ISO/AVC
Duration                                 : 1 h 35 min
Bit rate mode                            : Variable
Bit rate                                 : 2 936 kb/s
Maximum bit rate                         : 12.0 Mb/s
Width                                    : 1 280 pixels
Height                                   : 544 pixels
Display aspect ratio                     : 2.35:1
Frame rate mode                          : Constant
Frame rate                               : 23.976 (24000/1001) FPS
Standard                                 : NTSC
Color space                              : YUV
Chroma subsampling                       : 4:2:0
Bit depth                                : 8 bits
Scan type                                : Progressive
Bits/(Pixel*Frame)                       : 0.176
Stream size                              : 1.95 GiB (94%)
Language                                 : English
Default                                  : Yes
Forced                                   : No
Color range                              : Limited
Color primaries                          : BT.601 NTSC
Transfer characteristics                 : BT.601
Matrix coefficients                      : BT.601

Audio
ID                                       : 2
Format                                   : AC-3
Format/Info                              : Audio Coding 3
Commercial name                          : Dolby Digital
Codec ID                                 : A_AC3
Duration                                 : 1 h 35 min
Bit rate mode                            : Constant
Bit rate                                 : 192 kb/s
Channel(s)                               : 2 channels
Channel layout                           : L R
Sampling rate                            : 48.0 kHz
Frame rate                               : 31.250 FPS (1536 SPF)
Bit depth                                : 16 bits
Compression mode                         : Lossy
Stream size                              : 131 MiB (6%)
Service kind                             : Complete Main
Default                                  : Yes
Forced                                   : No




Скриншоты:
[+] Всего файлов в раздаче - 1:
The.Golem.2018.720p.WEBRip.HiWayGrope.mkv2.08 GB

Показать еще раздачи по запросу голем:
2019-03-26 U Голем: Начало / The Golem (2018) WEB-DLRip-AVC от ExKinoRay | HDRezka Studio 1.37 GB ↑ 35 ↓ 6
2019-03-25 U Голем: Начало / The Golem (2018) WEB-DLRip от ExKinoRay | HDRezka Studio 1.37 GB ↑ 426 ↓ 114
2019-03-25 U Голем: Начало / The Golem (2018) WEB-DL 1080p от ExKinoRay | HDRezka Studio 3.45 GB ↑ 544 ↓ 192
2019-02-27 U Голем: Начало / The Golem (2018) WEBRip 1080p | LakeFilms 1.60 GB ↑ 163 ↓ 27
2019-02-09 U Голем: Начало / The Golem (2018) WEBRip | L2 1.33 GB ↑ 82 ↓ 38
2017-12-11 U Голем / The Limehouse Golem (2016) BDRip от Seven | iTunes 2.19 GB ↑ 38 ↓ 4
2017-12-05 U Голем / The Limehouse Golem (2016) BDRip от ExKinoRay | iTunes 1.41 GB ↑ 66 ↓ 14

Отзывы
Зарегистрируйтесь чтобы добавить комментарий.
Обратная связь
Copyleft ©