↑↓Torrent.by
Поиск
Логин: Регистрация
Пароль: Восстановить пароль
Загрузка...

Голем: Начало / The Golem (2018) WEBRip | L2

Скачать golem-nachalo-the-2018-webrip-l2.torrent
U Магнитная ссылка Размер: 1.33 GB Раздают: 82 Качают: 38 Добавлен: 2019-02-09 11:46:50
Голем: Начало / The Golem (2018) WEBRip | L2

Название: Голем: Начало
Оригинальное название: The Golem

Год выхода: 2018
Жанр: Ужасы
Режиссер: Дорон Пас, Йоав Пас
В ролях: Хани Фюрстенберг, Ишай Голан, Брини Фюрстенберг, Эди Кветнер, Ленни Равич, Ольга Сафронова
О фильме:
Литва, 1673 год. Селянка Ханна уже семь лет скорбит об умершем сыне и находит утешение в изучении священных еврейских писаний. Когда её деревне начинает угрожать опасность вторжения, Ханна решает провести магический ритуал и создаёт чудовище - голема. Последствия этого неоднозначного поступка коснутся всех местных жителей.

Страна: Израиль
Продолжительность: 01:35:16
Перевод: Любительский (двухголосый закадровый) | HiWay Grope

Файл
Кодек: XviD
Качество: WEBRip
Видео: 720x304, 23.976 fps, ~1799 kbps, 0.34 bit/pixel
Звук:
Аудио rus: AC3, 48 kHz, 2 ch, 192 Kbps
Субтитры: отсутствуют

Реклама: присутствует

Семпл

Релиз от: HiWay Grope


[+] MediaInfo:

General
Complete name                            : D:The.Golem.2018.WEBRip.HiWayGropeThe.Golem.2018.WEBRip.HiWayGrope.avi
Format                                   : AVI
Format/Info                              : Audio Video Interleave
Format profile                           : OpenDML
File size                                : 1.33 GiB
Duration                                 : 1 h 35 min
Overall bit rate                         : 1 998 kb/s
Writing application                      : Lavf57.71.100

Video
ID                                       : 0
Format                                   : MPEG-4 Visual
Format profile                           : Advanced Simple@L5
Format settings, BVOP                    : No
Format settings, QPel                    : No
Format settings, GMC                     : No warppoints
Format settings, Matrix                  : Default (H.263)
Codec ID                                 : XVID
Codec ID/Hint                            : XviD
Duration                                 : 1 h 35 min
Bit rate                                 : 1 794 kb/s
Width                                    : 720 pixels
Height                                   : 304 pixels
Display aspect ratio                     : 2.35:1
Frame rate                               : 23.976 (24000/1001) FPS
Color space                              : YUV
Chroma subsampling                       : 4:2:0
Bit depth                                : 8 bits
Scan type                                : Progressive
Compression mode                         : Lossy
Bits/(Pixel*Frame)                       : 0.342
Stream size                              : 1.19 GiB (90%)
Writing library                          : XviD 67

Audio
ID                                       : 1
Format                                   : AC-3
Format/Info                              : Audio Coding 3
Commercial name                          : Dolby Digital
Codec ID                                 : 2000
Duration                                 : 1 h 35 min
Bit rate mode                            : Constant
Bit rate                                 : 192 kb/s
Channel(s)                               : 2 channels
Channel layout                           : L R
Sampling rate                            : 48.0 kHz
Frame rate                               : 31.250 FPS (1536 SPF)
Bit depth                                : 16 bits
Compression mode                         : Lossy
Stream size                              : 131 MiB (10%)
Alignment                                : Aligned on interleaves
Interleave, duration                     : 32  ms (0.77 video frame)
Service kind                             : Complete Main




Скриншоты:
[+] Всего файлов в раздаче - 1:
The.Golem.2018.WEBRip.HiWayGrope.avi1.33 GB

Показать еще раздачи по запросу голем:
2019-03-26 U Голем: Начало / The Golem (2018) WEB-DLRip-AVC от ExKinoRay | HDRezka Studio 1.37 GB ↑ 34 ↓ 6
2019-03-25 U Голем: Начало / The Golem (2018) WEB-DLRip от ExKinoRay | HDRezka Studio 1.37 GB ↑ 425 ↓ 114
2019-03-25 U Голем: Начало / The Golem (2018) WEB-DL 1080p от ExKinoRay | HDRezka Studio 3.45 GB ↑ 543 ↓ 192
2019-02-27 U Голем: Начало / The Golem (2018) WEBRip 1080p | LakeFilms 1.60 GB ↑ 162 ↓ 27
2019-02-09 U Голем: Начало / The Golem (2018) WEBRip 720p | L2 2.08 GB ↑ 76 ↓ 57
2017-12-11 U Голем / The Limehouse Golem (2016) BDRip от Seven | iTunes 2.19 GB ↑ 38 ↓ 4
2017-12-05 U Голем / The Limehouse Golem (2016) BDRip от ExKinoRay | iTunes 1.41 GB ↑ 66 ↓ 14

Отзывы
Зарегистрируйтесь чтобы добавить комментарий.
Обратная связь
Copyleft ©