↑↓Torrent.by
Поиск
Логин: Регистрация
Пароль: Восстановить пароль
Загрузка...

Вдовы / Widows (2018) BDRip 1080p от HDReactor | Лицензия

Скачать vdovy-widows-2018-bdrip-1080p-ot-hdreactor-licenziya.torrent
U Магнитная ссылка Размер: 7.76 GB Раздают: 658 Качают: 70 Добавлен: 2019-02-09 13:52:59
Вдовы / Widows (2018) BDRip 1080p от HDReactor | Лицензия

Название: Вдовы
Оригинальное название: Widows
Год выхода: 2018
Жанр: Триллер, драма, мелодрама, криминал
Режиссер: Стив МакКуин (II)
В ролях: Виола Дэвис, Лиам Нисон, Джон Бернтал, Мануэль Рульфо, Коберн Госс, Мишель Родригес, Алехандро Вердин, Бейли Рюз Уолтерс, Элизабет Дебики, Кэрри Кун, Синтия Эриво, Колин Фаррелл, Дэниэл Калуя, Роберт Дювалл

О фильме: История о жёнах грабителей, погибших при неудачном налёте. Новоиспечённые вдовы берутся сами закончить начатое, разобраться с полицией и конкурентами, а главное — выяснить, кто же подставил их мужей.

Выпущено: Великобритания, США / Regency Enterprises, See-Saw Films, Film4
Продолжительность: 02:09:34
Перевод: Дублированный | iTunes
Субтитры: Русские (Forced, full), английские (Forced, full)

Файл
Качество: BDRip 1080p
Видео: MPEG-4 AVC, 1920x804, ~7500 Kbit/s, 23.976 fps
Аудио #01: Русский, 48 kHz, AC3, 5.1, 448 Kbps
Аудио #02: Английский, 48 kHz, AC3, 5.1, 640 Kbps

[url=https://a.radikal.ru/a11/1901/a5/0ac4f3af7948.png" target="_blank">


[+] МедиаИнфо
Формат                                   : Matroska
Версия формата                           : Version 2
Размер файла                             : 7,76 Гбайт
Продолжительность                        : 2 ч. 9 м.
Общий поток                              : 8576 Кбит/сек
Название фильма                          : ~V ad~
Дата кодирования                         : UTC 2019-02-09 08:52:51
Программа кодирования                    : mkvmerge v6.5.0 ('Isn't she lovely') built on Oct 20 2013 12:50:05
Библиотека кодирования                   : libebml v1.3.0 + libmatroska v1.4.1
Обложка                                  : Yes
Attachments                              : cover.jpg

Видео
Идентификатор                            : 1
Формат                                   : AVC
Формат/Информация                        : Advanced Video Codec
Профиль формата                          : High@L4.1
Настройки формата                        : CABAC / 5 Ref Frames
Параметр CABAC формата                   : Да
Параметр RefFrames формата               : 5 кадров
Идентификатор кодека                     : V_MPEG4/ISO/AVC
Продолжительность                        : 2 ч. 9 м.
Битрейт                                  : 7487 Кбит/сек
Ширина                                   : 1920 пикселей
Высота                                   : 804 пикселя
Соотношение сторон                       : 2,40:1
Режим частоты кадров                     : Постоянный
Частота кадров                           : 23,976 (24000/1001) кадра/сек
Цветовое пространство                    : YUV
Субдискретизация насыщенности            : 4:2:0
Битовая глубина                          : 8 бит
Тип развёртки                            : Прогрессивная
Бит/(Пиксели*Кадры)                      : 0.202
Размер потока                            : 6,62 Гбайт (85%)
Заголовок                                : ~V~
Библиотека кодирования                   : x264 core 157 r2935 545de2f
Настройки программы                      : cabac=1 / ref=5 / deblock=1:-2:-2 / analyse=0x3:0x133 / me=umh / subme=11 / psy=1 / psy_rd=1.00:0.00 / mixed_ref=1 / me_range=32 / chroma_me=1 / trellis=2 / 8x8dct=1 / cqm=0 / deadzone=21,11 / fast_pskip=0 / chroma_qp_offset=-2 / threads=12 / lookahead_threads=1 / sliced_threads=0 / nr=0 / decimate=0 / interlaced=0 / bluray_compat=0 / constrained_intra=0 / bframes=13 / b_pyramid=2 / b_adapt=2 / b_bias=0 / direct=3 / weightb=1 / open_gop=0 / weightp=2 / keyint=240 / keyint_min=23 / scenecut=40 / intra_refresh=0 / rc=2pass / mbtree=0 / bitrate=7487 / ratetol=1.0 / qcomp=0.80 / qpmin=0 / qpmax=69 / qpstep=4 / cplxblur=20.0 / qblur=0.5 / ip_ratio=1.24 / pb_ratio=1.30 / aq=3:0.90
Язык                                     : Английский
Default                                  : Да
Forced                                   : Нет

Аудио #1
Идентификатор                            : 2
Формат                                   : AC-3
Формат/Информация                        : Audio Coding 3
Коммерческое название                    : Dolby Digital
Идентификатор кодека                     : A_AC3
Продолжительность                        : 2 ч. 9 м.
Вид битрейта                             : Постоянный
Битрейт                                  : 448 Кбит/сек
Каналы                                   : 6 каналов
Channel layout                           : L R C LFE Ls Rs
Частота                                  : 48,0 КГц
Частота кадров                           : 31,250 кадров/сек (1536 SPF)
Битовая глубина                          : 16 бит
Метод сжатия                             : С потерями
Размер потока                            : 415 Мбайт (5%)
Заголовок                                : 448 КБит/с - Blu-ray CEE
Язык                                     : Русский
Service Kind                             : Complete Main
Default                                  : Да
Forced                                   : Да

Аудио #2
Идентификатор                            : 3
Формат                                   : AC-3
Формат/Информация                        : Audio Coding 3
Коммерческое название                    : Dolby Digital
Идентификатор кодека                     : A_AC3
Продолжительность                        : 2 ч. 9 м.
Вид битрейта                             : Постоянный
Битрейт                                  : 640 Кбит/сек
Каналы                                   : 6 каналов
Channel layout                           : L R C LFE Ls Rs
Частота                                  : 48,0 КГц
Частота кадров                           : 31,250 кадров/сек (1536 SPF)
Битовая глубина                          : 16 бит
Метод сжатия                             : С потерями
Размер потока                            : 593 Мбайт (7%)
Заголовок                                : 640 КБит/с
Язык                                     : Английский
Service Kind                             : Complete Main
Default                                  : Нет
Forced                                   : Нет

Текст #1
Идентификатор                            : 4
Формат                                   : UTF-8
Идентификатор кодека                     : S_TEXT/UTF8
Идентификатор кодека/Информация          : UTF-8 Plain Text
Заголовок                                : Full
Язык                                     : Русский
Default                                  : Нет
Forced                                   : Нет

Текст #2
Идентификатор                            : 5
Формат                                   : UTF-8
Идентификатор кодека                     : S_TEXT/UTF8
Идентификатор кодека/Информация          : UTF-8 Plain Text
Заголовок                                : Forc
Язык                                     : Русский
Default                                  : Да
Forced                                   : Да

Текст #3
Идентификатор                            : 6
Формат                                   : UTF-8
Идентификатор кодека                     : S_TEXT/UTF8
Идентификатор кодека/Информация          : UTF-8 Plain Text
Заголовок                                : Full
Язык                                     : Английский
Default                                  : Нет
Forced                                   : Нет

Текст #4
Идентификатор                            : 7
Формат                                   : UTF-8
Идентификатор кодека                     : S_TEXT/UTF8
Идентификатор кодека/Информация          : UTF-8 Plain Text
Заголовок                                : Forc
Язык                                     : Английский
Default                                  : Нет
Forced                                   : Нет

Меню
00:00:00.000                             : en:Chapter 01
00:03:41.387                             : en:Chapter 02
00:09:00.414                             : en:Chapter 03
00:14:14.603                             : en:Chapter 04
00:21:43.010                             : en:Chapter 05
00:28:14.401                             : en:Chapter 06
00:36:07.081                             : en:Chapter 07
00:41:01.750                             : en:Chapter 08
00:45:58.672                             : en:Chapter 09
00:53:18.069                             : en:Chapter 10
00:58:11.321                             : en:Chapter 11
01:03:51.702                             : en:Chapter 12
01:09:56.775                             : en:Chapter 13
01:12:53.786                             : en:Chapter 14
01:17:21.845                             : en:Chapter 15
01:26:19.674                             : en:Chapter 16
01:33:29.312                             : en:Chapter 17
01:35:53.372                             : en:Chapter 18
01:39:10.486                             : en:Chapter 19
01:42:20.092                             : en:Chapter 20
01:46:12.407                             : en:Chapter 21
01:53:14.120                             : en:Chapter 22
01:58:18.674                             : en:Chapter 23
02:03:48.671                             : en:Chapter 24



Скриншоты:
[+] Всего файлов в раздаче - 1:
Widows.2018.BDRip.1080p.HDReactor.mkv7.76 GB

Показать еще раздачи по запросу вдовы:
2019-02-10 U Вдовы / Widows (2018) BDRip от ExKinoRay | Лицензия 1К1.46 GB ↑ 58 ↓ 20
2019-02-10 U Вдовы / Widows (2018) BDRip от ExKinoRay | Лицензия 2.18 GB ↑ 44 ↓ 34
2019-02-10 U Вдовы / Widows (2018) BDRip 720p от селезень | Лицензия 9.53 GB ↑ 48 ↓ 17
2019-02-10 U Вдовы / Widows (2018) HDRip-AVC | Лицензия 744.21 MB ↑ 50 ↓ 13
2019-02-10 U Вдовы / Widows (2018) BDRip 1080p от селезень | Лицензия 14.19 GB ↑ 74 ↓ 16
2019-02-09 U Вдовы / Widows (2018) BDRip-AVC от OlLanDGroup | Лицензия 2.06 GB ↑ 97 ↓ 49
2019-02-09 U Вдовы / Widows (2018) BDRip от MegaPeer | Лицензия 2.18 GB ↑ 78 ↓ 62

Отзывы
Зарегистрируйтесь чтобы добавить комментарий.
Обратная связь
Copyleft ©