↑↓Torrent.by
Поиск
Логин: Регистрация
Пароль: Восстановить пароль
Загрузка...

Ланцет [01-16 из 16] (2018) HDTVRip 720p от GeneralFilm

Скачать lancet-01-16-iz-2018-hdtvrip-720p-ot-generalfilm.torrent
U Магнитная ссылка Размер: 20.91 GB Раздают: 82 Качают: 132 Добавлен: 2019-02-09 13:56:14
Ланцет [01-16 из 16] (2018) HDTVRip 720p от GeneralFilm

Год выпуска: 2018
Жанр:  Мелодрама, детектив, драма
Выпущено: Россия, Марс Медиа, Амедиа Продакшн
Режиссер: Елена Николаева
В ролях: Павел Трубинер, Борис Каморзин, Евгения Симонова, Полина Агуреева, Иван Жидков, Софья Синицына, Григорий Зельцер, Иван Агапов, Дмитрий Калязин, Артемий Шаффер, Александр Сергеев (IV), Наталья Высочанская, Антон Косточкин, Сергей Долготович, Олег Чудницов, Александр Пугачёв (II), Алексей Кирсанов, Александр Касаткин (II), Анастасия Дубровина, Алла Криницына, Владимир Чуприков, Виталия Корниенко, Алексей Кирилин, Мария Бортник, Александр Хованский (II), Иван Рудаков, Надежда Иванко, Екатерина Гудина, Анна Галлямова, Эрик Яралов, Ксения Ильясова, Александр Обласов, Михаил Хмуров

О фильме: Кардиохирург Илья Ладынин по прозвищу "Ланцет", полученному еще в мединституте за страсть к хирургии, находится на грани отчаяния: жена скоропостижно скончалась, сын винит его в смерти матери и переезжает к бабушке. Только работа способна «вылечить», но сбывается самый страшный кошмар любого хирурга — у Ильи начинается тремор рук. Ладынин теряет пациента и больше не может оперировать. Он уже готов уйти из медицины, но получает неожиданное предложение – возглавить подразделение больницы, занимающееся внутренними расследованиями. Илья решает, что новое назначение поможет разобраться в том, что пошло не так в лечении его жены...

Качество: HDTVRip (720p)
Видео: MPEG-4 AVC, ~ 3500 Кбит/с, 1280x720, 25 fps
Аудио: Русский (AC3, 2 ch, 192 Кбит/с)
Продолжительность: 16 х ~ 00:50:00
Перевод: Не требуется
Субтитры: нет

Релиз:


[+] MediaInfo

Общее
Уникальный идентификатор                 : 255152789757550080589588553344464687693 (0xBFF4A3CB2A38294D888FDBCCE543924D)
Полное имя                               : D:Lancet.HDTVRip.(720p).GeneralFilm1.Lancet.HDTVRip.(720p).GeneralFilm.mkv
Формат                                   : Matroska
Версия формата                           : Version 2
Размер файла                             : 1,30 Гбайт
Продолжительность                        : 50 м. 15 с.
Общий поток                              : 3694 Кбит/сек
Дата кодирования                         : UTC 2019-01-28 16:52:17
Программа кодирования                    : mkvmerge v7.8.0 ('River Man') 32bit built on Apr  3 2015 12:11:22
Библиотека кодирования                   : libebml v1.3.1 + libmatroska v1.4.2

Видео
Идентификатор                            : 1
Формат                                   : AVC
Формат/Информация                        : Advanced Video Codec
Профиль формата                          : High@L4.1
Параметр CABAC формата                   : Да
Параметр ReFrames формата                : 9 кадров
Идентификатор кодека                     : V_MPEG4/ISO/AVC
Продолжительность                        : 50 м. 15 с.
Битрейт                                  : 3500 Кбит/сек
Ширина                                   : 1280 пикселей
Высота                                   : 720 пикселей
Соотношение сторон                       : 16:9
Режим частоты кадров                     : Постоянный
Частота кадров                           : 25,000 кадров/сек
Цветовое пространство                    : YUV
Субдискретизация насыщенности            : 4:2:0
Битовая глубина                          : 8 бит
Тип развёртки                            : Прогрессивная
Бит/(Пиксели*Кадры)                      : 0.152
Размер потока                            : 1,20 Гбайт (93%)
Библиотека кодирования                   : x264 core 146 r2538 121396c
Настройки программы                      : cabac=1 / ref=9 / deblock=1:-2:-1 / analyse=0x3:0x113 / me=umh / subme=9 / psy=1 / psy_rd=1.00:0.15 / mixed_ref=1 / me_range=32 / chroma_me=1 / trellis=2 / 8x8dct=1 / cqm=0 / deadzone=21,11 / fast_pskip=0 / chroma_qp_offset=-3 / threads=18 / lookahead_threads=3 / sliced_threads=0 / nr=0 / decimate=1 / interlaced=0 / bluray_compat=0 / constrained_intra=0 / bframes=9 / b_pyramid=2 / b_adapt=2 / b_bias=0 / direct=1 / weightb=1 / open_gop=0 / weightp=2 / keyint=250 / keyint_min=25 / scenecut=40 / intra_refresh=0 / rc_lookahead=40 / rc=2pass / mbtree=0 / bitrate=3500 / ratetol=1.0 / qcomp=0.60 / qpmin=0 / qpmax=69 / qpstep=4 / cplxblur=20.0 / qblur=0.5 / vbv_maxrate=14000 / vbv_bufsize=14000 / nal_hrd=none / filler=0 / ip_ratio=1.40 / pb_ratio=1.30 / aq=2:1.00
Default                                  : Да
Forced                                   : Нет
Цветовой диапазон                        : Limited
Основные цвета                           : BT.709
Характеристики трансфера                 : BT.709
Коэффициенты матрицы                     : BT.709

Аудио
Идентификатор                            : 2
Формат                                   : AC-3
Формат/Информация                        : Audio Coding 3
Расширение режима                        : CM (complete main)
Параметр Endianness формата              : Big
Идентификатор кодека                     : A_AC3
Продолжительность                        : 50 м. 15 с.
Вид битрейта                             : Постоянный
Битрейт                                  : 192 Кбит/сек
Каналы                                   : 2 канала
Расположение каналов                     : Front: L R
Частота                                  : 48,0 КГц
Частота кадров                           : 31,250 кадров/сек (1536 spf)
Битовая глубина                          : 16 бит
Метод сжатия                             : С потерями
Размер потока                            : 69,0 Мбайт (5%)
Default                                  : Да
Forced                                   : Нет

Общее
Уникальный идентификатор                 : 183235324451810701541800414491479023475 (0x89D9D6FEA5F98BC9A16F4B7BBA229F73)
Полное имя                               : D:Lancet.HDTVRip.(720p).GeneralFilm2.Lancet.HDTVRip.(720p).GeneralFilm.mkv
Формат                                   : Matroska
Версия формата                           : Version 2
Размер файла                             : 1,31 Гбайт
Продолжительность                        : 50 м. 53 с.
Общий поток                              : 3694 Кбит/сек
Дата кодирования                         : UTC 2019-01-28 18:11:18
Программа кодирования                    : mkvmerge v7.8.0 ('River Man') 32bit built on Apr  3 2015 12:11:22
Библиотека кодирования                   : libebml v1.3.1 + libmatroska v1.4.2

Видео
Идентификатор                            : 1
Формат                                   : AVC
Формат/Информация                        : Advanced Video Codec
Профиль формата                          : High@L4.1
Параметр CABAC формата                   : Да
Параметр ReFrames формата                : 9 кадров
Идентификатор кодека                     : V_MPEG4/ISO/AVC
Продолжительность                        : 50 м. 53 с.
Битрейт                                  : 3500 Кбит/сек
Ширина                                   : 1280 пикселей
Высота                                   : 720 пикселей
Соотношение сторон                       : 16:9
Режим частоты кадров                     : Постоянный
Частота кадров                           : 25,000 кадров/сек
Цветовое пространство                    : YUV
Субдискретизация насыщенности            : 4:2:0
Битовая глубина                          : 8 бит
Тип развёртки                            : Прогрессивная
Бит/(Пиксели*Кадры)                      : 0.152
Размер потока                            : 1,22 Гбайт (93%)
Библиотека кодирования                   : x264 core 146 r2538 121396c
Настройки программы                      : cabac=1 / ref=9 / deblock=1:-2:-1 / analyse=0x3:0x113 / me=umh / subme=9 / psy=1 / psy_rd=1.00:0.15 / mixed_ref=1 / me_range=32 / chroma_me=1 / trellis=2 / 8x8dct=1 / cqm=0 / deadzone=21,11 / fast_pskip=0 / chroma_qp_offset=-3 / threads=18 / lookahead_threads=3 / sliced_threads=0 / nr=0 / decimate=1 / interlaced=0 / bluray_compat=0 / constrained_intra=0 / bframes=9 / b_pyramid=2 / b_adapt=2 / b_bias=0 / direct=1 / weightb=1 / open_gop=0 / weightp=2 / keyint=250 / keyint_min=25 / scenecut=40 / intra_refresh=0 / rc_lookahead=40 / rc=2pass / mbtree=0 / bitrate=3500 / ratetol=1.0 / qcomp=0.60 / qpmin=0 / qpmax=69 / qpstep=4 / cplxblur=20.0 / qblur=0.5 / vbv_maxrate=14000 / vbv_bufsize=14000 / nal_hrd=none / filler=0 / ip_ratio=1.40 / pb_ratio=1.30 / aq=2:1.00
Default                                  : Да
Forced                                   : Нет
Цветовой диапазон                        : Limited
Основные цвета                           : BT.709
Характеристики трансфера                 : BT.709
Коэффициенты матрицы                     : BT.709

Аудио
Идентификатор                            : 2
Формат                                   : AC-3
Формат/Информация                        : Audio Coding 3
Расширение режима                        : CM (complete main)
Параметр Endianness формата              : Big
Идентификатор кодека                     : A_AC3
Продолжительность                        : 50 м. 53 с.
Вид битрейта                             : Постоянный
Битрейт                                  : 192 Кбит/сек
Каналы                                   : 2 канала
Расположение каналов                     : Front: L R
Частота                                  : 48,0 КГц
Частота кадров                           : 31,250 кадров/сек (1536 spf)
Битовая глубина                          : 16 бит
Метод сжатия                             : С потерями
Размер потока                            : 69,9 Мбайт (5%)
Default                                  : Да
Forced                                   : Нет




Скриншоты:
[+] Всего файлов в раздаче - 16:
01.Lancet.HDTVRip.(720p).GeneralFilm.mkv1.30 GB
02.Lancet.HDTVRip.(720p).GeneralFilm.mkv1.31 GB
03.Lancet.HDTVRip.(720p).GeneralFilm.mkv1.30 GB
04.Lancet.HDTVRip.(720p).GeneralFilm.mkv1.28 GB
05.Lancet.HDTVRip.(720p).GeneralFilm.mkv1.32 GB
06.Lancet.HDTVRip.(720p).GeneralFilm.mkv1.29 GB
07.Lancet.HDTVRip.(720p).GeneralFilm.mkv1.27 GB
08.Lancet.HDTVRip.(720p).GeneralFilm.mkv1.32 GB
09.Lancet.HDTVRip.(720p).GeneralFilm.mkv1.29 GB
10.Lancet.HDTVRip.(720p).GeneralFilm.mkv1.34 GB
11.Lancet.HDTVRip.(720p).GeneralFilm.mkv1.32 GB
12.Lancet.HDTVRip.(720p).GeneralFilm.mkv1.33 GB
13.Lancet.HDTVRip.(720p).GeneralFilm.mkv1.31 GB
14.Lancet.HDTVRip.(720p).GeneralFilm.mkv1.31 GB
15.Lancet.HDTVRip.(720p).GeneralFilm.mkv1.31 GB
16.Lancet.HDTVRip.(720p).GeneralFilm.mkv1.32 GB

Показать еще раздачи по запросу ланцет:
2019-02-10 U Ланцет [01-16 из 16] (2018) WEBRip от GeneralFilm 8.71 GB ↑ 117 ↓ 262
2019-02-09 U Ланцет [01-16 из 16] (2018) WEBRip от Files-x 10.30 GB ↑ 193 ↓ 207
2019-02-09 U Ланцет [01-16 из 16] (2018) HDTV 1080i от GeneralFilm 41.18 GB ↑ 64 ↓ 182
2019-02-09 U Ланцет [01-16 из 16] (2018) HDTVRip-AVC от Files-х 12.42 GB ↑ 27 ↓ 52
2019-02-09 U Ланцет [01-16 из 16] (2018) HDTVRip от GeneralFilm 11.22 GB ↑ 81 ↓ 168
2019-02-08 U Ланцет [01-16 из 16] (2019) SATRip-AVC 10.67 GB ↑ 23 ↓ 31
2019-02-08 U Ланцет [01-14 из 16] (2018) HDTVRip от GeneralFilm 9.81 GB ↑ 59 ↓ 117

Отзывы
Зарегистрируйтесь чтобы добавить комментарий.
Обратная связь
Copyleft ©