↑↓Torrent.by
Поиск
Логин: Регистрация
Пароль: Восстановить пароль
Загрузка...

Ланцет [01-16 из 16] (2018) HDTV 1080i от GeneralFilm

Скачать lancet-01-16-iz-2018-hdtv-1080i-ot-generalfilm.torrent
U Магнитная ссылка Размер: 41.18 GB Раздают: 59 Качают: 179 Добавлен: 2019-02-09 13:58:49
Ланцет [01-16 из 16] (2018) HDTV 1080i от GeneralFilm

Год выпуска: 2018
Жанр:  Мелодрама, детектив, драма
Выпущено: Россия, Марс Медиа, Амедиа Продакшн
Режиссер: Елена Николаева
В ролях: Павел Трубинер, Борис Каморзин, Евгения Симонова, Полина Агуреева, Иван Жидков, Софья Синицына, Григорий Зельцер, Иван Агапов, Дмитрий Калязин, Артемий Шаффер, Александр Сергеев (IV), Наталья Высочанская, Антон Косточкин, Сергей Долготович, Олег Чудницов, Александр Пугачёв (II), Алексей Кирсанов, Александр Касаткин (II), Анастасия Дубровина, Алла Криницына, Владимир Чуприков, Виталия Корниенко, Алексей Кирилин, Мария Бортник, Александр Хованский (II), Иван Рудаков, Надежда Иванко, Екатерина Гудина, Анна Галлямова, Эрик Яралов, Ксения Ильясова, Александр Обласов, Михаил Хмуров

О фильме: Кардиохирург Илья Ладынин по прозвищу "Ланцет", полученному еще в мединституте за страсть к хирургии, находится на грани отчаяния: жена скоропостижно скончалась, сын винит его в смерти матери и переезжает к бабушке. Только работа способна «вылечить», но сбывается самый страшный кошмар любого хирурга — у Ильи начинается тремор рук. Ладынин теряет пациента и больше не может оперировать. Он уже готов уйти из медицины, но получает неожиданное предложение – возглавить подразделение больницы, занимающееся внутренними расследованиями. Илья решает, что новое назначение поможет разобраться в том, что пошло не так в лечении его жены...

Качество: HDTV (1080i)
Видео: MPEG-TS AVC, ~ 6000 Кбит/с, 1920x1080
Аудио: Русский (AC3, 2 ch, 384 Кбит/с), (MP2, 2 ch, 192 Кбит/с)
Продолжительность: 16 х ~ 00:50:00
Перевод: Не требуется
Субтитры: нет

Релиз:


[+] MediaInfo

Общее
Идентификатор                            : 1 (0x1)
Полное имя                               : D:ЗаписьLancet.HDTV(1080i).GeneralFilm1.Lancet.HDTV(1080i).GeneralFilm.ts
Формат                                   : MPEG-TS
Размер файла                             : 2,58 Гбайт
Продолжительность                        : 50 м. 15 с.
Режим общего битрейта                    : Переменный
Общий поток                              : 7358 Кбит/сек

Видео
Идентификатор                            : 1904 (0x770)
Идентификатор меню                       : 80 (0x50)
Формат                                   : AVC
Формат/Информация                        : Advanced Video Codec
Профиль формата                          : High@L4
Параметр CABAC формата                   : Да
Параметр ReFrames формата                : 3 кадра
Идентификатор кодека                     : 27
Продолжительность                        : 50 м. 15 с.
Битрейт                                  : 6413 Кбит/сек
Ширина                                   : 1920 пикселей
Высота                                   : 1080 пикселей
Соотношение сторон                       : 16:9
Частота кадров                           : 25,000 кадров/сек
Стандарт вещания                         : Component
Цветовое пространство                    : YUV
Субдискретизация насыщенности            : 4:2:0
Битовая глубина                          : 8 бит
Тип развёртки                            : Чересстрочная
Метод сохранения типа развёртки          : Раздельные поля
Порядок развёртки                        : Верхнее поле первое
Бит/(Пиксели*Кадры)                      : 0.124
Размер потока                            : 2,25 Гбайт (87%)
Цветовой диапазон                        : Limited
Основные цвета                           : BT.709
Характеристики трансфера                 : BT.709
Коэффициенты матрицы                     : BT.709

Аудио #1
Идентификатор                            : 2904 (0xB58)
Идентификатор меню                       : 80 (0x50)
Формат                                   : AC-3
Формат/Информация                        : Audio Coding 3
Расширение режима                        : CM (complete main)
Параметр Endianness формата              : Big
Идентификатор кодека                     : 6
Продолжительность                        : 50 м. 15 с.
Вид битрейта                             : Постоянный
Битрейт                                  : 384 Кбит/сек
Каналы                                   : 6 каналов
Расположение каналов                     : Front: L C R, Side: L R, LFE
Частота                                  : 48,0 КГц
Частота кадров                           : 31,250 кадров/сек (1536 spf)
Битовая глубина                          : 16 бит
Метод сжатия                             : С потерями
Задержка видео                           : -40 мс.
Размер потока                            : 138 Мбайт (5%)
Язык                                     : Russian

Аудио #2
Идентификатор                            : 2905 (0xB59)
Идентификатор меню                       : 80 (0x50)
Формат                                   : MPEG Audio
Версия формата                           : Version 1
Профиль формата                          : Layer 2
Идентификатор кодека                     : 3
Продолжительность                        : 50 м. 15 с.
Вид битрейта                             : Постоянный
Битрейт                                  : 192 Кбит/сек
Каналы                                   : 2 канала
Частота                                  : 48,0 КГц
Метод сжатия                             : С потерями
Задержка видео                           : -40 мс.
Размер потока                            : 69,0 Мбайт (3%)
Язык                                     : Russian

Общее
Идентификатор                            : 1 (0x1)
Полное имя                               : D:ЗаписьLancet.HDTV(1080i).GeneralFilm2.Lancet.HDTV(1080i).GeneralFilm.ts
Формат                                   : MPEG-TS
Размер файла                             : 2,34 Гбайт
Продолжительность                        : 50 м. 53 с.
Режим общего битрейта                    : Переменный
Общий поток                              : 6591 Кбит/сек

Видео
Идентификатор                            : 1904 (0x770)
Идентификатор меню                       : 80 (0x50)
Формат                                   : AVC
Формат/Информация                        : Advanced Video Codec
Профиль формата                          : High@L4
Параметр CABAC формата                   : Да
Параметр ReFrames формата                : 3 кадра
Идентификатор кодека                     : 27
Продолжительность                        : 50 м. 53 с.
Битрейт                                  : 5684 Кбит/сек
Ширина                                   : 1920 пикселей
Высота                                   : 1080 пикселей
Соотношение сторон                       : 16:9
Частота кадров                           : 25,000 кадров/сек
Стандарт вещания                         : Component
Цветовое пространство                    : YUV
Субдискретизация насыщенности            : 4:2:0
Битовая глубина                          : 8 бит
Тип развёртки                            : Чересстрочная
Метод сохранения типа развёртки          : Раздельные поля
Порядок развёртки                        : Верхнее поле первое
Бит/(Пиксели*Кадры)                      : 0.110
Размер потока                            : 2,02 Гбайт (86%)
Цветовой диапазон                        : Limited
Основные цвета                           : BT.709
Характеристики трансфера                 : BT.709
Коэффициенты матрицы                     : BT.709

Аудио #1
Идентификатор                            : 2904 (0xB58)
Идентификатор меню                       : 80 (0x50)
Формат                                   : AC-3
Формат/Информация                        : Audio Coding 3
Расширение режима                        : CM (complete main)
Параметр Endianness формата              : Big
Идентификатор кодека                     : 6
Продолжительность                        : 50 м. 53 с.
Вид битрейта                             : Постоянный
Битрейт                                  : 384 Кбит/сек
Каналы                                   : 6 каналов
Расположение каналов                     : Front: L C R, Side: L R, LFE
Частота                                  : 48,0 КГц
Частота кадров                           : 31,250 кадров/сек (1536 spf)
Битовая глубина                          : 16 бит
Метод сжатия                             : С потерями
Задержка видео                           : -40 мс.
Размер потока                            : 140 Мбайт (6%)
Язык                                     : Russian

Аудио #2
Идентификатор                            : 2905 (0xB59)
Идентификатор меню                       : 80 (0x50)
Формат                                   : MPEG Audio
Версия формата                           : Version 1
Профиль формата                          : Layer 2
Идентификатор кодека                     : 3
Продолжительность                        : 50 м. 53 с.
Вид битрейта                             : Постоянный
Битрейт                                  : 192 Кбит/сек
Каналы                                   : 2 канала
Частота                                  : 48,0 КГц
Метод сжатия                             : С потерями
Задержка видео                           : -40 мс.
Размер потока                            : 69,9 Мбайт (3%)
Язык                                     : Russian




Скриншоты:
[+] Всего файлов в раздаче - 16:
01.Lancet.HDTV(1080i).GeneralFilm.ts2.58 GB
02.Lancet.HDTV(1080i).GeneralFilm.ts2.34 GB
03.Lancet.HDTV(1080i).GeneralFilm.ts2.56 GB
04.Lancet.HDTV(1080i).GeneralFilm.ts2.62 GB
05.Lancet.HDTV(1080i).GeneralFilm.ts2.80 GB
06.Lancet.HDTV(1080i).GeneralFilm.ts1.59 GB
07.Lancet.HDTV(1080i).GeneralFilm.ts2.76 GB
08.Lancet.HDTV(1080i).GeneralFilm.ts2.55 GB
09.Lancet.HDTV(1080i).GeneralFilm.ts2.74 GB
10.Lancet.HDTV(1080i).GeneralFilm.ts2.52 GB
11.Lancet.HDTV(1080i).GeneralFilm.ts2.54 GB
12.Lancet.HDTV(1080i).GeneralFilm.ts2.69 GB
13.Lancet.HDTV(1080i).GeneralFilm.ts2.79 GB
14.Lancet.HDTV(1080i).GeneralFilm.ts2.61 GB
15.Lancet.HDTV(1080i).GeneralFilm.ts2.72 GB
16.Lancet.HDTV(1080i).GeneralFilm.ts2.78 GB

Показать еще раздачи по запросу ланцет:
2019-02-10 U Ланцет [01-16 из 16] (2018) WEBRip от GeneralFilm 8.71 GB ↑ 114 ↓ 240
2019-02-09 U Ланцет [01-16 из 16] (2018) WEBRip от Files-x 10.30 GB ↑ 76 ↓ 202
2019-02-09 U Ланцет [01-16 из 16] (2018) HDTVRip 720p от GeneralFilm 20.91 GB ↑ 65 ↓ 131
2019-02-09 U Ланцет [01-16 из 16] (2018) HDTVRip-AVC от Files-х 12.42 GB ↑ 28 ↓ 51
2019-02-09 U Ланцет [01-16 из 16] (2018) HDTVRip от GeneralFilm 11.22 GB ↑ 81 ↓ 168
2019-02-08 U Ланцет [01-16 из 16] (2019) SATRip-AVC 10.67 GB ↑ 12 ↓ 30
2019-02-08 U Ланцет [01-14 из 16] (2018) HDTVRip от GeneralFilm 9.81 GB ↑ 59 ↓ 117

Отзывы
Зарегистрируйтесь чтобы добавить комментарий.
Обратная связь
Copyleft ©