↑↓Torrent.by
Поиск
Логин: Регистрация
Пароль: Восстановить пароль
Загрузка...

Нас не проведешь / Nobody's Fool (2018) BDRip 1080p | iTunes

Скачать nas-ne-provedesh-nobody-s-fool-2018-bdrip-1080p-itunes.torrent
U Магнитная ссылка Размер: 6.93 GB Раздают: 100 Качают: 98 Добавлен: 2019-02-09 17:24:24
Нас не проведешь / Nobody's Fool (2018) BDRip 1080p | iTunes

Название: Нас не проведешь
Оригинальное название: Nobody's Fool
Год выхода: 2018
Жанр: Драма, мелодрама, комедия
Страна: США
Перевод: Дублированный | iTunes
Продолжительность: 01:50:21
Режиссер: Тайлер Перри
В ролях: Мисси Пайл, Тиффани Хэддиш, Кортни Хенгелер, Тика Самптер, Вупи Голдберг, Омари Хардвик, Мехкад Брукс, Джон Рудницкий, Эмбер Райли, Тринити Уайтсайд и др.

О фильме: Таня только вышла из тюрьмы и решает навестить свою сестру Данику, у которой, на первый взгляд, «идеальная жизнь».

Файл
Качество: BDRip 1080p
Видео: MPEG-4 AVC, 1920x804, 8157 kbps, 23,976 fps
Звук#1: русский, AC3, 5.1 ch, 48 kHz, 384 kbps | iTunes
Звук#2: английский, AC3, 5.1 ch, 48 kHz, 448 kbps | оригинал
Субтитры: русские (форс., полные), английские (полные, SDH)

Релиз:
[+] MI
General
Уникальный идентификатор                 : 214814886155724944436496349813065712018 (0xA19BD798C39976BF9A1A65F5C46D0192)
Полное имя                               : E:TorrentNobodysFoolBDRip1080p.mkv
Формат                                   : Matroska
Версия формата                           : Version 4 / Version 2
Размер файла                             : 6.93 GiB
Продолжительность                        : 1 h 50 min
Общий поток                              : 8 991 kb/s
Дата кодирования                         : UTC 2019-02-09 10:11:08
Программа кодирования                    : mkvmerge v9.5.0 ('Quiet Fire') 64bit
Библиотека кодирования                   : libebml v1.3.4 + libmatroska v1.4.5

Video
Идентификатор                            : 1
Формат                                   : AVC
Формат/Информация                        : Advanced Video Codec
Профиль формата                          : High@L4.1
Настройки формата                        : CABAC / 5 Ref Frames
Параметр CABAC формата                   : Yes
Параметр RefFrames формата               : 5 frames
Идентификатор кодека                     : V_MPEG4/ISO/AVC
Продолжительность                        : 1 h 50 min
Битрейт                                  : 8 157 kb/s
Ширина                                   : 1 920 pixels
Высота                                   : 804 pixels
Соотношение сторон                       : 2.40:1
Режим частоты кадров                     : Constant
Частота кадров                           : 23.976 (24000/1001) FPS
Цветовое пространство                    : YUV
Субдискретизация насыщенности            : 4:2:0
Битовая глубина                          : 8 bits
Тип развёртки                            : Progressive
Бит/(Пиксели*Кадры)                      : 0.220
Размер потока                            : 6.29 GiB (91%)
Библиотека кодирования                   : x264 core 157 r2935 545de2f
Настройки программы                      : cabac=1 / ref=5 / deblock=1:-2:-2 / analyse=0x3:0x113 / me=umh / subme=11 / psy=1 / psy_rd=1.00:0.00 / mixed_ref=1 / me_range=32 / chroma_me=1 / trellis=2 / 8x8dct=1 / cqm=0 / deadzone=21,11 / fast_pskip=0 / chroma_qp_offset=-2 / threads=9 / lookahead_threads=2 / sliced_threads=0 / nr=0 / decimate=0 / interlaced=0 / bluray_compat=0 / constrained_intra=0 / bframes=12 / b_pyramid=2 / b_adapt=2 / b_bias=0 / direct=3 / weightb=1 / open_gop=0 / weightp=2 / keyint=240 / keyint_min=24 / scenecut=40 / intra_refresh=0 / rc_lookahead=120 / rc=2pass / mbtree=0 / bitrate=8157 / ratetol=1.0 / qcomp=0.70 / qpmin=0 / qpmax=69 / qpstep=4 / cplxblur=20.0 / qblur=0.5 / vbv_maxrate=50000 / vbv_bufsize=62500 / nal_hrd=none / filler=0 / ip_ratio=1.40 / pb_ratio=1.30 / aq=3:0.80
Язык                                     : English
Default                                  : Yes
Forced                                   : No

Audio #1
Идентификатор                            : 2
Формат                                   : AC-3
Формат/Информация                        : Audio Coding 3
Идентификатор кодека                     : A_AC3
Продолжительность                        : 1 h 50 min
Вид битрейта                             : Constant
Битрейт                                  : 384 kb/s
Каналы                                   : 6 channels
Расположение каналов                     : Front: L C R, Side: L R, LFE
Частота                                  : 48.0 kHz
Частота кадров                           : 31.250 FPS (1536 SPF)
Битовая глубина                          : 16 bits
Метод сжатия                             : Lossy
Размер потока                            : 303 MiB (4%)
Язык                                     : Russian
Default                                  : Yes
Forced                                   : No

Audio #2
Идентификатор                            : 3
Формат                                   : AC-3
Формат/Информация                        : Audio Coding 3
Идентификатор кодека                     : A_AC3
Продолжительность                        : 1 h 50 min
Вид битрейта                             : Constant
Битрейт                                  : 448 kb/s
Каналы                                   : 6 channels
Расположение каналов                     : Front: L C R, Side: L R, LFE
Частота                                  : 48.0 kHz
Частота кадров                           : 31.250 FPS (1536 SPF)
Битовая глубина                          : 16 bits
Метод сжатия                             : Lossy
Размер потока                            : 354 MiB (5%)
Язык                                     : English
Default                                  : No
Forced                                   : No

Text #1
Идентификатор                            : 4
Формат                                   : UTF-8
Идентификатор кодека                     : S_TEXT/UTF8
Идентификатор кодека/Информация          : UTF-8 Plain Text
Продолжительность                        : 1 h 49 min
Битрейт                                  : 1 b/s
ElementCount                             : 38
Размер потока                            : 1.37 KiB (0%)
Заголовок                                : rusForced
Язык                                     : Russian
Default                                  : Yes
Forced                                   : Yes

Text #2
Идентификатор                            : 5
Формат                                   : UTF-8
Идентификатор кодека                     : S_TEXT/UTF8
Идентификатор кодека/Информация          : UTF-8 Plain Text
Продолжительность                        : 1 h 49 min
Битрейт                                  : 137 b/s
ElementCount                             : 2094
Размер потока                            : 111 KiB (0%)
Заголовок                                : rusFull
Язык                                     : Russian
Default                                  : No
Forced                                   : No

Text #3
Идентификатор                            : 6
Формат                                   : UTF-8
Идентификатор кодека                     : S_TEXT/UTF8
Идентификатор кодека/Информация          : UTF-8 Plain Text
Продолжительность                        : 1 h 45 min
Битрейт                                  : 97 b/s
ElementCount                             : 2174
Размер потока                            : 75.4 KiB (0%)
Заголовок                                : engFull
Язык                                     : English
Default                                  : No
Forced                                   : No

Text #4
Идентификатор                            : 7
Формат                                   : UTF-8
Идентификатор кодека                     : S_TEXT/UTF8
Идентификатор кодека/Информация          : UTF-8 Plain Text
Продолжительность                        : 1 h 49 min
Битрейт                                  : 98 b/s
ElementCount                             : 2262
Размер потока                            : 79.3 KiB (0%)
Заголовок                                : engSDH
Язык                                     : English
Default                                  : No
Forced                                   : No

Menu
00:00:00.000                             : :Chapter 01
00:08:01.731                             : :Chapter 02
00:12:06.392                             : :Chapter 03
00:22:15.792                             : :Chapter 04
00:30:30.829                             : :Chapter 05
00:38:17.295                             : :Chapter 06
00:46:45.385                             : :Chapter 07
00:53:31.124                             : :Chapter 08
01:02:06.305                             : :Chapter 09
01:09:06.934                             : :Chapter 10
01:13:29.154                             : :Chapter 11
01:20:32.285                             : :Chapter 12
01:25:34.087                             : :Chapter 13
01:32:33.256                             : :Chapter 14
01:37:10.491                             : :Chapter 15
01:43:12.352                             : :Chapter 16




Скриншоты:
[+] Всего файлов в раздаче - 1:
NobodysFoolBDRip1080p.mkv6.93 GB

Похожие раздачи по запросу - проведешь:
2019-02-09 U Нас не проведешь / Nobody's Fool (2018) BDRip | iTunes 1.46 GB ↑ 165 ↓ 58

Отзывы
Зарегистрируйтесь чтобы добавить комментарий.
Обратная связь
Copyleft ©