↑↓Torrent.by
Поиск
Логин: Регистрация
Пароль: Восстановить пароль
Загрузка...

Нас не проведешь / Nobody's Fool (2018) BDRip | iTunes

Скачать nas-ne-provedesh-nobody-s-fool-2018-bdrip-itunes.torrent
U Магнитная ссылка Размер: 1.46 GB Раздают: 165 Качают: 58 Добавлен: 2019-02-09 17:25:18
Нас не проведешь / Nobody's Fool (2018) BDRip | iTunes

Название: Нас не проведешь
Оригинальное название: Nobody's Fool
Год выхода: 2018
Жанр: Драма, мелодрама, комедия
Страна: США
Перевод: Дублированный | iTunes
Продолжительность: 01:50:21
Режиссер: Тайлер Перри
В ролях: Мисси Пайл, Тиффани Хэддиш, Кортни Хенгелер, Тика Самптер, Вупи Голдберг, Омари Хардвик, Мехкад Брукс, Джон Рудницкий, Эмбер Райли, Тринити Уайтсайд и др.

О фильме: Таня только вышла из тюрьмы и решает навестить свою сестру Данику, у которой, на первый взгляд, «идеальная жизнь».

Файл
Формат: AVI
Качество: BDRip
Видео: Xvid 73, 720x304, ~1494 kbps, 23,976 fps
Звук: русский, AC3, 5.1 ch, 48 kHz, 384 kbps | iTunes
Субтитры: русские (форс. вшитые)

Релиз:
[+] MI
General
Полное имя                               : E:TorrentNobodysFoolBDRip.avi
Формат                                   : AVI
Формат/Информация                        : Audio Video Interleave
Профиль формата                          : OpenDML
Размер файла                             : 1.46 GiB
Продолжительность                        : 1 h 50 min
Общий поток                              : 1 890 kb/s
Программа кодирования                    : XviD4PSP 6.0 / 54.27.101

Video
Идентификатор                            : 0
Формат                                   : MPEG-4 Visual
Профиль формата                          : Advanced Simple@L5
Настройки формата                        : BVOP2 / Custom Matrix
Параметр BVOP формата                    : 2
Параметр QPel формата                    : No
Параметр GMC формата                     : No warppoints
Параметр матрицы формата                 : Custom
Идентификатор кодека                     : XVID
Идентификатор кодека/Подсказка           : XviD
Продолжительность                        : 1 h 50 min
Битрейт                                  : 1 494 kb/s
Ширина                                   : 720 pixels
Высота                                   : 304 pixels
Соотношение сторон                       : 2.35:1
Частота кадров                           : 23.976 (23976/1000) FPS
Цветовое пространство                    : YUV
Субдискретизация насыщенности            : 4:2:0
Битовая глубина                          : 8 bits
Тип развёртки                            : Progressive
Метод сжатия                             : Lossy
Бит/(Пиксели*Кадры)                      : 0.285
Размер потока                            : 1.15 GiB (79%)
Библиотека кодирования                   : XviD 73

Audio
Идентификатор                            : 1
Формат                                   : AC-3
Формат/Информация                        : Audio Coding 3
Идентификатор кодека                     : 2000
Продолжительность                        : 1 h 50 min
Вид битрейта                             : Constant
Битрейт                                  : 384 kb/s
Каналы                                   : 6 channels
Расположение каналов                     : Front: L C R, Side: L R, LFE
Частота                                  : 48.0 kHz
Частота кадров                           : 31.250 FPS (1536 SPF)
Битовая глубина                          : 16 bits
Метод сжатия                             : Lossy
Размер потока                            : 303 MiB (20%)
Выравнивание                             : Aligned on interleaves
Продолжительность промежутка             : 32  ms (0.77 video frame)




Скриншоты:
[+] Всего файлов в раздаче - 1:
NobodysFoolBDRip.avi1.46 GB

Похожие раздачи по запросу - проведешь:
2019-02-09 U Нас не проведешь / Nobody's Fool (2018) BDRip 1080p | iTunes 6.93 GB ↑ 100 ↓ 98

Отзывы
Зарегистрируйтесь чтобы добавить комментарий.
Обратная связь
Copyleft ©