↑↓Torrent.by
Поиск
Логин: Регистрация
Пароль: Восстановить пароль
Загрузка...

Тёмное зеркало / Look Away (2018) WEB-DL 1080p | iTunes

Скачать temnoe-zerkalo-look-away-2018-web-dl-1080p-itunes.torrent
U Магнитная ссылка Размер: 3.86 GB Раздают: 344 Качают: 129 Добавлен: 2019-02-10 06:55:52
Тёмное зеркало / Look Away (2018) WEB-DL 1080p | iTunes

Название: Тёмное зеркало
Оригинальное название: Look Away
Год выхода: 2018
Жанр: ужасы, триллер
Режиссер: Асаф Бернштейн
В ролях: Индиа Айсли, Джейсон Айзекс, Мира Сорвино, Пенелопа Митчелл, Джон С. МакДональд, Харрисон Гилбертсон, Кристен Харрис, Кира Джонсон, Михал Бернштейн, Гленн Одер

Описание: У Марии нет друзей, и даже родители считают ее неудачницей. Свои секреты и обиды она доверяет только своему отражению в зеркале, демону-двойнику, который воплощает темную сторону ее души. Но как изменится жизнь Марии, если она выпустит своих демонов наружу и позволит им осуществить ее тайные желания?

Страна: Канада
Продолжительность: 01:43:03
Перевод: профессиональный (дублированный) iTunes
Субтитры: русские, английские
Оригинальная аудиодорожка: английский

Файл
Качество: WEB-DL 1080p
Видео: AVC, 1916x800 (21:9), 23,976 fps, 4594 kbps
Аудио 1: AC3, 48,0 kHz, 6 ch, 384 kbps | iTunes
Аудио 2: AC3, 48,0 kHz, 6 ch, 384 kbps | English

***Релиз: Kylе


[+] MediaInfo
Общее
Полное имя                               : Look.Away.2018.WEB-DL.1080p.-Kyle.mkv
Формат                                   : Matroska
Версия формата                           : Version 4
Размер файла                             : 3,86 Гбайт
Продолжительность                        : 1 ч. 43 м.
Общий поток                              : 5364 Кбит/сек
Дата кодирования                         : UTC 2019-02-09 15:36:08
Программа кодирования                    : mkvmerge v30.1.0 ('Forever And More') 64-bit
Библиотека кодирования                   : libebml v1.3.6 + libmatroska v1.4.9

Видео
Идентификатор                            : 1
Формат                                   : AVC
Формат/Информация                        : Advanced Video Codec
Профиль формата                          : High@L4
Настройки формата                        : CABAC / 5 Ref Frames
Параметр CABAC формата                   : Да
Параметр RefFrames формата               : 5 кадров
Идентификатор кодека                     : V_MPEG4/ISO/AVC
Продолжительность                        : 1 ч. 43 м.
Битрейт                                  : 4594 Кбит/сек
Ширина                                   : 1916 пикселей
Высота                                   : 800 пикселей
Соотношение сторон                       : 2,40:1
Режим частоты кадров                     : Постоянный
Частота кадров                           : 23,976 (24000/1001) кадра/сек
Цветовое пространство                    : YUV
Субдискретизация насыщенности            : 4:2:0
Битовая глубина                          : 8 бит
Тип развёртки                            : Прогрессивная
Бит/(Пиксели*Кадры)                      : 0.125
Размер потока                            : 3,31 Гбайт (86%)
Заголовок                                : English
Язык                                     : English
Default                                  : Да
Forced                                   : Нет
Цветовой диапазон                        : Limited
Основные цвета                           : BT.709
Характеристики трансфера                 : BT.709
Коэффициенты матрицы                     : BT.709

Аудио #1
Идентификатор                            : 2
Формат                                   : AC-3
Формат/Информация                        : Audio Coding 3
Коммерческое название                    : Dolby Digital
Идентификатор кодека                     : A_AC3
Продолжительность                        : 1 ч. 43 м.
Вид битрейта                             : Постоянный
Битрейт                                  : 384 Кбит/сек
Каналы                                   : 6 каналов
Channel layout                           : L R C LFE Ls Rs
Частота                                  : 48,0 КГц
Частота кадров                           : 31,250 кадров/сек (1536 SPF)
Битовая глубина                          : 16 бит
Метод сжатия                             : С потерями
Размер потока                            : 283 Мбайт (7%)
Заголовок                                : Russian
Язык                                     : Russian
ServiceKind                              : Complete Main
Default                                  : Да
Forced                                   : Нет

Аудио #2
Идентификатор                            : 3
Формат                                   : AC-3
Формат/Информация                        : Audio Coding 3
Коммерческое название                    : Dolby Digital
Идентификатор кодека                     : A_AC3
Продолжительность                        : 1 ч. 43 м.
Вид битрейта                             : Постоянный
Битрейт                                  : 384 Кбит/сек
Каналы                                   : 6 каналов
Channel layout                           : L R C LFE Ls Rs
Частота                                  : 48,0 КГц
Частота кадров                           : 31,250 кадров/сек (1536 SPF)
Битовая глубина                          : 16 бит
Метод сжатия                             : С потерями
Размер потока                            : 283 Мбайт (7%)
Заголовок                                : English
Язык                                     : English
ServiceKind                              : Complete Main
Default                                  : Нет
Forced                                   : Нет

Текст #1
Идентификатор                            : 4
Формат                                   : UTF-8
Идентификатор кодека                     : S_TEXT/UTF8
Идентификатор кодека/Информация          : UTF-8 Plain Text
Продолжительность                        : 1 ч. 35 м.
Битрейт                                  : 46 бит/сек
ElementCount                             : 772
Размер потока                            : 32,8 Кбайт (0%)
Заголовок                                : Russian
Язык                                     : Russian
Default                                  : Нет
Forced                                   : Нет

Текст #2
Идентификатор                            : 5
Формат                                   : UTF-8
Идентификатор кодека                     : S_TEXT/UTF8
Идентификатор кодека/Информация          : UTF-8 Plain Text
Продолжительность                        : 1 ч. 39 м.
Битрейт                                  : 30 бит/сек
ElementCount                             : 802
Размер потока                            : 22,5 Кбайт (0%)
Заголовок                                : English
Язык                                     : English
Default                                  : Нет
Forced                                   : Нет

Меню
00:00:00.000                             : en:01
00:06:22.000                             : en:02
00:13:26.000                             : en:03
00:19:18.000                             : en:04
00:25:52.000                             : en:05
00:33:28.000                             : en:06
00:38:59.000                             : en:07
00:46:32.000                             : en:08
00:52:25.000                             : en:09
00:59:59.000                             : en:10
01:06:33.000                             : en:11
01:12:19.000                             : en:12
01:21:01.000                             : en:13
01:24:38.000                             : en:14
01:31:11.000                             : en:15
01:39:50.000                             : en:16



Скриншоты:
[+] Всего файлов в раздаче - 1:
Look.Away.2018.WEB-DL.1080p.-Kyle.mkv3.86 GB

Отзывы
Зарегистрируйтесь чтобы добавить комментарий.
Обратная связь
Copyleft ©