↑↓Torrent.by
Поиск
Логин: Регистрация
Пароль: Восстановить пароль
Загрузка...

Тёмное зеркало / Look Away (2018) WEB-DLRip-AVC от OlLanDGroup | D, P | iTunes

Скачать temnoe-zerkalo-look-away-2018-web-dlrip-avc-ot-ollandgroup-d-p-itunes.torrent
U Магнитная ссылка Размер: 2.01 GB Раздают: 169 Качают: 24 Добавлен: 2019-02-10 06:55:58
Тёмное зеркало / Look Away (2018) WEB-DLRip-AVC от OlLanDGroup | D, P | iTunes

Тёмное зеркало / Look Away
«Дай волю своим тайным желаниям»

Год выпуска: 2018
Страна: Канада, США
Производство: Primary Wave Entertainment,Dana Lustig Productions,Buffalo Gal Pictures
Жанр:  Ужасы, триллер

Режиссёр: Асаф Бернштейн
В ролях: Индиа Айсли, Джейсон Айзекс, Пенелопа Митчелл, Мира Сорвино, Харрисон Гилбертсон, Кристен Харрис, Адам Хертиг, Джон С. МакДональд, Коннор Питерсон, Кристина Сеговиа

Перевод: Дублированный | [iTunes], Профессиональный многоголосый | [HDRezka Studio]
Субтитры: Русские (полные), Английские (полные)
Реклама: Отсутствует

Описание: Презираемая сверстниками в школе Мария пребывает в тяжелом психологическом состоянии. У девушки не самые лучшие отношения с родителями, у неё нет ни единого друга, а нападки недоброжелателей постепенно доходят до проявлений физического насилия. Собственное отражение в зеркале давно стало для девушки единственным приятным собеседником, но в один момент оно начинает не только общаться с ней — отражение берет на себя решение всех проблем Марии и приступает к действию, используя самые страшные средства и оставив саму Марию в качестве наблюдателя по ту сторону зеркала…

Качество: WEB-DLRip-AVC | |
Продолжительность: 01:43:04

Формат: MKV
Видео кодек: MPEG-4 AVC
Аудио кодек: AC3
Видео: 1024x428 (2.40:1), 23,976 fps, x264 ~1 831 kbps avg, 0.174 bit/pixel
Аудио #1: 48 kHz, AC3 Dolby Digital, 3/2 (L,C,R,l,r) + LFE ch, ~384.00 kbps avg | RUS (iTunes)
Аудио #2: 48 kHz, AC3 Dolby Digital, 2 (L,R) ch, ~192.00 kbps avg | RUS (HDRezka Studio)
Аудио #3: 48 kHz, AC3 Dolby Digital, 3/2 (L,C,R,l,r) + LFE ch, ~384.00 kbps avg | ENG

Дата премьеры (мир): 12 октября 2018
Дата премьеры (РФ): 10 января 2019, «Экспонента»
Цифровой релиз: 8 февраля 2019, «Экспонента»

Релиз: Rip by:


[+] MediaInfo

Общее
Уникальный идентификатор                 : 186402386671724279891154560013052908963 (0x8C3BCB37C36F3620174A53A877EB95A3)
Полное имя                               : F:OlLanDGroupLook.Away.2018.WEB-DLRip(AVC).OlLanDGroup.mkv
Формат                                   : Matroska
Версия формата                           : Version 4 / Version 2
Размер файла                             : 2,01 Гбайт
Продолжительность                        : 1 ч. 43 м.
Общий поток                              : 2791 Кбит/сек
Название фильма                          : Look.Away.2018   #TorpedoUK#
Дата кодирования                         : UTC 2019-02-09 17:35:15
Программа кодирования                    : mkvmerge v29.0.0 ('Like It Or Not') 64-bit
Библиотека кодирования                   : libebml v1.3.6 + libmatroska v1.4.9

Видео
Идентификатор                            : 1
Формат                                   : AVC
Формат/Информация                        : Advanced Video Codec
Профиль формата                          : High@L4.1
Параметр CABAC формата                   : Да
Параметр ReFrames формата                : 10 кадров
Идентификатор кодека                     : V_MPEG4/ISO/AVC
Продолжительность                        : 1 ч. 43 м.
Битрейт                                  : 1831 Кбит/сек
Ширина                                   : 1024 пикселя
Высота                                   : 428 пикселей
Соотношение сторон                       : 2,40:1
Режим частоты кадров                     : Постоянный
Частота кадров                           : 23,976 (24000/1001) кадра/сек
Цветовое пространство                    : YUV
Субдискретизация насыщенности            : 4:2:0
Битовая глубина                          : 8 бит
Тип развёртки                            : Прогрессивная
Бит/(Пиксели*Кадры)                      : 0.174
Размер потока                            : 1,32 Гбайт (66%)
Библиотека кодирования                   : x264 core 146 r2538 121396c
Настройки программы                      : cabac=1 / ref=10 / deblock=1:-3:-2 / analyse=0x3:0x113 / me=umh / subme=10 / psy=1 / psy_rd=0.97:0.05 / mixed_ref=1 / me_range=48 / chroma_me=1 / trellis=2 / 8x8dct=1 / cqm=0 / deadzone=21,11 / fast_pskip=1 / chroma_qp_offset=-3 / threads=6 / lookahead_threads=1 / sliced_threads=0 / nr=0 / decimate=1 / interlaced=0 / bluray_compat=0 / constrained_intra=0 / bframes=11 / b_pyramid=2 / b_adapt=2 / b_bias=0 / direct=3 / weightb=1 / open_gop=0 / weightp=2 / keyint=240 / keyint_min=23 / scenecut=40 / intra_refresh=0 / rc_lookahead=40 / rc=2pass / mbtree=0 / bitrate=1831 / ratetol=1.0 / qcomp=0.60 / qpmin=0 / qpmax=69 / qpstep=4 / cplxblur=20.0 / qblur=0.5 / vbv_maxrate=50000 / vbv_bufsize=62500 / nal_hrd=none / filler=0 / ip_ratio=1.40 / pb_ratio=1.30 / aq=1:1.00
Язык                                     : English
Default                                  : Да
Forced                                   : Нет

Аудио #1
Идентификатор                            : 2
Формат                                   : AC-3
Формат/Информация                        : Audio Coding 3
Расширение режима                        : CM (complete main)
Параметр Endianness формата              : Big
Идентификатор кодека                     : A_AC3
Продолжительность                        : 1 ч. 43 м.
Вид битрейта                             : Постоянный
Битрейт                                  : 384 Кбит/сек
Каналы                                   : 6 каналов
Расположение каналов                     : Front: L C R, Side: L R, LFE
Частота                                  : 48,0 КГц
Частота кадров                           : 31,250 кадров/сек (1536 spf)
Битовая глубина                          : 16 бит
Метод сжатия                             : С потерями
Размер потока                            : 283 Мбайт (14%)
Заголовок                                : DUB [iTunes]
Язык                                     : Russian
Default                                  : Да
Forced                                   : Нет

Аудио #2
Идентификатор                            : 3
Формат                                   : AC-3
Формат/Информация                        : Audio Coding 3
Расширение режима                        : CM (complete main)
Параметр Endianness формата              : Big
Идентификатор кодека                     : A_AC3
Продолжительность                        : 1 ч. 43 м.
Вид битрейта                             : Постоянный
Битрейт                                  : 192 Кбит/сек
Каналы                                   : 2 канала
Расположение каналов                     : Front: L R
Частота                                  : 48,0 КГц
Частота кадров                           : 31,250 кадров/сек (1536 spf)
Битовая глубина                          : 16 бит
Метод сжатия                             : С потерями
Размер потока                            : 142 Мбайт (7%)
Заголовок                                : MVO [HDRezka Studio]
Язык                                     : Russian
Default                                  : Нет
Forced                                   : Нет

Аудио #3
Идентификатор                            : 4
Формат                                   : AC-3
Формат/Информация                        : Audio Coding 3
Расширение режима                        : CM (complete main)
Параметр Endianness формата              : Big
Идентификатор кодека                     : A_AC3
Продолжительность                        : 1 ч. 43 м.
Вид битрейта                             : Постоянный
Битрейт                                  : 384 Кбит/сек
Каналы                                   : 6 каналов
Расположение каналов                     : Front: L C R, Side: L R, LFE
Частота                                  : 48,0 КГц
Частота кадров                           : 31,250 кадров/сек (1536 spf)
Битовая глубина                          : 16 бит
Метод сжатия                             : С потерями
Размер потока                            : 283 Мбайт (14%)
Заголовок                                : [Original]
Язык                                     : English
Default                                  : Нет
Forced                                   : Нет

Текст #1
Идентификатор                            : 5
Формат                                   : UTF-8
Идентификатор кодека                     : S_TEXT/UTF8
Идентификатор кодека/Информация          : UTF-8 Plain Text
Продолжительность                        : 1 ч. 35 м.
Битрейт                                  : 46 бит/сек
Count of elements                        : 772
Размер потока                            : 32,8 Кбайт (0%)
Заголовок                                : Full
Язык                                     : Russian
Default                                  : Нет
Forced                                   : Нет

Текст #2
Идентификатор                            : 6
Формат                                   : UTF-8
Идентификатор кодека                     : S_TEXT/UTF8
Идентификатор кодека/Информация          : UTF-8 Plain Text
Продолжительность                        : 1 ч. 39 м.
Битрейт                                  : 30 бит/сек
Count of elements                        : 802
Размер потока                            : 22,5 Кбайт (0%)
Заголовок                                : Full
Язык                                     : English
Default                                  : Нет
Forced                                   : Нет

Меню
00:00:00.000                             : en:01
00:06:22.000                             : en:02
00:13:26.000                             : en:03
00:19:18.000                             : en:04
00:25:52.000                             : en:05
00:33:28.000                             : en:06
00:38:59.000                             : en:07
00:46:32.000                             : en:08
00:52:25.000                             : en:09
00:59:59.000                             : en:10
01:06:33.000                             : en:11
01:12:19.000                             : en:12
01:21:01.000                             : en:13
01:24:38.000                             : en:14
01:31:11.000                             : en:15
01:39:50.000                             : en:16



Скриншоты:
[+] Всего файлов в раздаче - 1:
Look.Away.2018.WEB-DLRip(AVC).OlLanDGroup.mkv2.01 GB

Отзывы
Зарегистрируйтесь чтобы добавить комментарий.
Обратная связь
Copyleft ©