↑↓Torrent.by
Поиск
Логин: Регистрация
Пароль: Восстановить пароль
Загрузка...

Полярный / Polar (2019) WEBRip 1080p от Ash61 | HDrezka

Скачать polyarnyy-polar-2019-webrip-1080p-ot-ash61-hdrezka.torrent
U Магнитная ссылка Размер: 13.64 GB Раздают: 95 Качают: 93 Добавлен: 2019-02-10 06:56:30
Полярный / Polar (2019) WEBRip 1080p от Ash61 | HDrezka

Полярный
Polar
«Если работа не убивает тебя, убьёт выход на пенсию»


Год выпуска: 2019
Страна: Германия, США (Netflix, Constantin Film, JB Pictures, Dark Horse Entertainment)
Жанр:  боевик, криминал, драма, комедия
Продолжительность: 01:58:19

Перевод: Профессиональный многоголосый закадровый - HDrezka

Режиссер: Йонас Окерлунд / Jonas Åkerlund

В ролях:

Мадс Миккельсен (Duncan Vizla), Ванесса Энн Хадженс (Camille), Кэтрин Уинник (Vivian), Фэй Рен (Hilde), Руби О. Фи (Sindy), Мэтт Лукас (Blut), Роберт Мэйллет (Karl), Энтони Грант (Facundo), Джош Круддас (Alexei), Lovina Yavari (Junkie Jane), Аиша Исса (Jazmin), Ричард Дрейфусс (Porter), Джонни Ноксвил (Michael Green)

Описание: Дункан Визла — один из самых опасных киллеров в мире, известный под творческим псевдонимом Чёрный Кайзер. Контракт с его работодателем предусматривает выход на пенсию и немалые выплаты по достижении сотрудником 50 лет. Вот только босс конторы затаил личную обиду на Чёрного Кайзера и не собирается переводить ему заслуженные тяжким трудом пенсионные отчисления, а вместо этого посылает за ним отряд своих лучших наёмных убийц.

Доп. инфо:
Русская дорога получена вставкой русских фраз / блоков фраз в центр оригинала, качество звука оригинальной дороги максимально сохранено (в отличие от многоголоски другой студии).
Видео забугорное.
Ненормативной лексики нет!

Премьера: 25 января 2019

Качество: WEBRip 1080p (Polar.2019.1080p.WEBRip.X264-DEFLATE)
Контейнер: MKV

Видео: AVC / 1920х960p / 23,976 fps / 14.9 Mbps

Аудио:
#1 - Русский / AC3 / 48 KHz / 5.1 ch / 640 Kbps (MVO - HDrezka) (ремастеринг - Ash61)
#2 - Английский / E-AC3 / 48 KHz / 5.1 ch / 640 Kbps (Original)

Субтитры (SRT):
Вшитые (softsub):
#1 - Русские Форсированные [от Ash61] (включены по умолчанию)
#2 - Русские Полные [Netflix]
#3 - English Forced [Netflix]
#4 - English Full [Netflix]
#5 - English SDH [Netflix]

Внешние (UTF-8):
#1 - Русские Форсированные [от Ash61] (включены по умолчанию)


[+] MediaInfo
General
Unique ID                   : 227732525724139653969945123450011080947 (0xAB53B0664195F8A99DCFC6F6757158F3)
Complete name               : J:Polar(2019)WEBRip.1080p-DEFLATE(MVO-HDrezka[Ash61])Polar(2019)WEBRip.1080p-DEFLATE(MVO-HDrezka[Ash61]).mkv
Format                      : Matroska
Format version              : Version 2
File size                   : 13.6 GiB
Duration                    : 1h 58mn
Overall bit rate            : 16.5 Mbps
Movie name                  : Полярный / Polar (2019)
Encoded date                : UTC 2019-02-09 18:08:33
Writing application         : mkvmerge v5.8.0 ('No Sleep / Pillow') built on Sep  2 2012 15:37:04
Writing library             : libebml v1.2.3 + libmatroska v1.3.0

Video
ID                          : 1
Format                      : AVC
Format/Info                 : Advanced Video Codec
Format profile              : High@L4.1
Format settings, CABAC      : Yes
Format settings, ReFrames   : 4 frames
Codec ID                    : V_MPEG4/ISO/AVC
Duration                    : 1h 58mn
Bit rate                    : 14.9 Mbps
Width                       : 1 920 pixels
Height                      : 960 pixels
Display aspect ratio        : 2.000
Frame rate mode             : Constant
Frame rate                  : 23.976 (24000/1001) fps
Color space                 : YUV
Chroma subsampling          : 4:2:0
Bit depth                   : 8 bits
Scan type                   : Progressive
Bits/(Pixel*Frame)          : 0.337
Stream size                 : 12.3 GiB (90%)
Title                       : Polar.2019.1080p.WEBRip.X264-DEFLATE
Writing library             : x264 core 157 r2935+3 (master: 545de2f / tmod: 0f48dd4) [X86_64]
Encoding settings           : cabac=1 / ref=4 / deblock=1:-3:-3 / analyse=0x3:0x133 / me=umh / subme=11 / psy=1 / psy_rd=1.05:0.15 / mixed_ref=1 / me_range=48 / chroma_me=1 / trellis=2 / 8x8dct=1 / cqm=0 / deadzone=6,6 / fast_pskip=0 / chroma_qp_offset=-3 / threads=30 / lookahead_threads=7 / sliced_threads=0 / nr=0 / decimate=0 / interlaced=0 / bluray_compat=0 / constrained_intra=0 / bframes=10 / b_pyramid=2 / b_adapt=2 / b_bias=0 / direct=3 / weightb=1 / open_gop=0 / weightp=2 / keyint=250 / keyint_min=23 / scenecut=40 / intra_refresh=0 / rc_lookahead=60 / rc=crf / mbtree=0 / crf=17.0 / qcomp=0.70 / qpmin=0 / qpmax=69 / qpstep=4 / vbv_maxrate=62500 / vbv_bufsize=78125 / crf_max=0.0 / nal_hrd=none / filler=0 / ip_ratio=1.25 / pb_ratio=1.20 / aq=3:0.70
Language                    : English
Default                     : Yes
Forced                      : No

Audio #1
ID                          : 2
Format                      : AC-3
Format/Info                 : Audio Coding 3
Mode extension              : CM (complete main)
Format settings, Endianness : Big
Codec ID                    : A_AC3
Duration                    : 1h 58mn
Bit rate mode               : Constant
Bit rate                    : 640 Kbps
Channel(s)                  : 6 channels
Channel positions           : Front: L C R, Side: L R, LFE
Sampling rate               : 48.0 KHz
Frame rate                  : 31.250 fps (1536 spf)
Compression mode            : Lossy
Stream size                 : 542 MiB (4%)
Title                       : MVO - HDrezka (ремастеринг - Ash61)
Language                    : Russian
Default                     : Yes
Forced                      : No

Audio #2
ID                          : 3
Format                      : E-AC-3
Format/Info                 : Audio Coding 3
Format settings, Endianness : Big
Codec ID                    : A_EAC3
Duration                    : 1h 58mn
Bit rate mode               : Constant
Bit rate                    : 640 Kbps
Channel(s)                  : 6 channels
Channel positions           : Front: L C R, Side: L R, LFE
Sampling rate               : 48.0 KHz
Frame rate                  : 187.500 fps (256 spf)
Compression mode            : Lossy
Stream size                 : 542 MiB (4%)
Title                       : Original
Language                    : English
Default                     : No
Forced                      : No

Text #1
ID                          : 4
Format                      : UTF-8
Codec ID                    : S_TEXT/UTF8
Codec ID/Info               : UTF-8 Plain Text
Title                       : Форсированные (для озвучки HDrezka) [от Ash61]
Language                    : Russian
Default                     : Yes
Forced                      : No

Text #2
ID                          : 5
Format                      : UTF-8
Codec ID                    : S_TEXT/UTF8
Codec ID/Info               : UTF-8 Plain Text
Title                       : Russian
Language                    : Russian
Default                     : No
Forced                      : No

Text #3
ID                          : 6
Format                      : UTF-8
Codec ID                    : S_TEXT/UTF8
Codec ID/Info               : UTF-8 Plain Text
Title                       : Forced
Language                    : English
Default                     : No
Forced                      : No

Text #4
ID                          : 7
Format                      : UTF-8
Codec ID                    : S_TEXT/UTF8
Codec ID/Info               : UTF-8 Plain Text
Title                       : Full
Language                    : English
Default                     : No
Forced                      : No

Text #5
ID                          : 8
Format                      : UTF-8
Codec ID                    : S_TEXT/UTF8
Codec ID/Info               : UTF-8 Plain Text
Title                       : SDH
Language                    : English
Default                     : No
Forced                      : No



Скриншоты:
[+] Всего файлов в раздаче - 2:
Polar(2019)WEBRip.1080p-DEFLATE(MVO-HDrezka[Ash61]).mkv13.64 GB
Polar(2019)WEBRip.1080p-DEFLATE(MVO-HDrezka[Ash61]).srt1.89 kB

Показать еще раздачи по запросу полярный:
2019-02-07 U Полярный / Polar (2019) WEB-DLRip от MegaPeer | IdeaFilm 746.11 MB ↑ 39 ↓ 7
2019-02-04 U Полярный / Polar (2019) WEB-DLRip от Scarabey | IdeaFilm 1К1.45 GB ↑ 52 ↓ 22
2019-02-02 U Полярный / Polar (2018) WEB-DLRip-AVC от OlLanDGroup | IdeaFilm 2.44 GB ↑ 102 ↓ 28
2019-02-01 U Полярный / Polar (2019) WEBRip 1080p от Dalemake | IdeaFilm 13.27 GB ↑ 252 ↓ 250
2019-02-01 U Полярный / Polar (2019) WEB-DLRip от MegaPeer | IdeaFilm 2К1.46 GB ↑ 249 ↓ 72
2019-02-01 U Полярный / Polar (2019) WEB-DLRip от Dalemake | IdeaFilm 1.47 GB ↑ 253 ↓ 117
2019-01-28 U Полярный / Polar (2019) WEBRip 1080p | L1 6.05 GB ↑ 134 ↓ 33

Отзывы
Kameleo
Очень хороший фильм.

Зарегистрируйтесь чтобы добавить комментарий.
Обратная связь
Copyleft ©