↑↓Torrent.by
Поиск
Логин: Регистрация
Пароль: Восстановить пароль
Загрузка...

Вдовы / Widows (2018) BDRip 1080p от селезень | Лицензия

Скачать vdovy-widows-2018-bdrip-1080p-ot-selezen-licenziya.torrent
U Магнитная ссылка Размер: 14.19 GB Раздают: 77 Качают: 18 Добавлен: 2019-02-10 06:56:57
Вдовы / Widows (2018) BDRip 1080p от селезень | Лицензия

Название: Вдовы
Оригинальное название: Widows
Год выхода: 2018
Жанр: Триллер, драма, мелодрама, криминал
Режиссер: Стив МакКуин (II)
В ролях: Виола Дэвис, Лиам Нисон, Джон Бернтал, Мануэль Рульфо, Коберн Госс, Мишель Родригес, Алехандро Вердин, Бейли Рюз Уолтерс, Элизабет Дебики, Кэрри Кун, Синтия Эриво, Колин Фаррелл, Дэниэл Калуя, Роберт Дювалл

О фильме: История о жёнах грабителей, погибших при неудачном налёте. Новоиспечённые вдовы берутся сами закончить начатое, разобраться с полицией и конкурентами, а главное — выяснить, кто же подставил их мужей.

Страна: Великобритания, США
Студия: Regency Enterprises, See-Saw Films, Film4
Продолжительность: 02:09:34
Перевод: Дублированный | Лицензия

Качество: BDRip 1080p
Видео: MPEG-4 AVC, 1920x804, 12.5 Mbit/s, 23.976 fps
Звук:
Аудио #01: 48 kHz, DTS, 5.1, 768 Kbps | Дублированный | RUS |
Аудио #02: 48 kHz, AC3, 5.1, 448 Kbps | Дублированный | RUS |
Аудио #03: 48 kHz, AC3, 5.1, 448 Kbps | Дублированный | UKR |
Аудио #04: 48 kHz, DTS, 5.1, 1510 Kbps | Оригинал |  ENG |
Субтитры: Русские (Forced, full), английские

Релиз:


[+] MI
General
Unique ID                   : 46277757084629640441439415323649693798 (0x22D0C59586AC2984227F7C4A8344D866)
Complete name               : D:Video111Widows.2018.Lic.BDRip.1080p.seleZen.mkv
Format                      : Matroska
Format version              : Version 4
File size                   : 14.2 GiB
Duration                    : 2 h 9 min
Overall bit rate            : 15.7 Mb/s
Movie name                  : Widows 2018 from селезень
Encoded date                : UTC 2019-02-09 09:07:26
Writing application         : mkvmerge v29.0.0 ('Like It Or Not') 64-bit
Writing library             : libebml v1.3.6 + libmatroska v1.4.9

Video
ID                          : 1
Format                      : AVC
Format/Info                 : Advanced Video Codec
Format profile              : High@L4.1
Format settings             : CABAC / 5 Ref Frames
Format settings, CABAC      : Yes
Format settings, ReFrames   : 5 frames
Codec ID                    : V_MPEG4/ISO/AVC
Duration                    : 2 h 9 min
Bit rate                    : 12.5 Mb/s
Width                       : 1 920 pixels
Height                      : 804 pixels
Display aspect ratio        : 2.40:1
Frame rate mode             : Constant
Frame rate                  : 23.976 (24000/1001) FPS
Color space                 : YUV
Chroma subsampling          : 4:2:0
Bit depth                   : 8 bits
Scan type                   : Progressive
Bits/(Pixel*Frame)          : 0.338
Stream size                 : 11.3 GiB (80%)
Title                       : HDC
Writing library             : x264 core 148 r2665kMod a01e339
Encoding settings           : cabac=1 / ref=5 / deblock=1:-3:-3 / analyse=0x3:0x133 / me=umh / subme=11 / psy=1 / fade_compensate=0.00 / psy_rd=0.85:0.00 / mixed_ref=1 / me_range=48 / chroma_me=1 / trellis=2 / 8x8dct=1 / cqm=0 / deadzone=21,11 / fast_pskip=0 / chroma_qp_offset=-2 / threads=24 / lookahead_threads=4 / sliced_threads=0 / nr=0 / decimate=0 / interlaced=0 / bluray_compat=0 / constrained_intra=0 / fgo=0 / bframes=8 / b_pyramid=2 / b_adapt=2 / b_bias=0 / direct=3 / weightb=1 / open_gop=0 / weightp=2 / keyint=240 / keyint_min=24 / scenecut=40 / intra_refresh=0 / rc=2pass / mbtree=0 / bitrate=12500 / ratetol=1.0 / qcomp=0.70 / qpmin=0 / qpmax=69 / qpstep=4 / cplxblur=20.0 / qblur=0.5 / ip_ratio=1.20 / pb_ratio=1.20 / aq=3:0.80
Language                    : English
Default                     : Yes
Forced                      : No

Audio #1
ID                          : 2
Format                      : DTS
Format/Info                 : Digital Theater Systems
Codec ID                    : A_DTS
Duration                    : 2 h 9 min
Bit rate mode               : Constant
Bit rate                    : 768 kb/s
Channel(s)                  : 6 channels
Channel layout              : C L R Ls Rs LFE
Sampling rate               : 48.0 kHz
Frame rate                  : 93.750 FPS (512 SPF)
Bit depth                   : 24 bits
Compression mode            : Lossy
Stream size                 : 712 MiB (5%)
Title                       : Dub [License]
Language                    : Russian
Default                     : Yes
Forced                      : Yes

Audio #2
ID                          : 3
Format                      : AC-3
Format/Info                 : Audio Coding 3
Commercial name             : Dolby Digital
Codec ID                    : A_AC3
Duration                    : 2 h 9 min
Bit rate mode               : Constant
Bit rate                    : 448 kb/s
Channel(s)                  : 6 channels
Channel layout              : L R C LFE Ls Rs
Sampling rate               : 48.0 kHz
Frame rate                  : 31.250 FPS (1536 SPF)
Bit depth                   : 16 bits
Compression mode            : Lossy
Stream size                 : 415 MiB (3%)
Title                       : Dub [License]
Language                    : Russian
Service kind                : Complete Main
Default                     : No
Forced                      : No

Audio #3
ID                          : 4
Format                      : AC-3
Format/Info                 : Audio Coding 3
Commercial name             : Dolby Digital
Codec ID                    : A_AC3
Duration                    : 2 h 9 min
Bit rate mode               : Constant
Bit rate                    : 448 kb/s
Channel(s)                  : 6 channels
Channel layout              : L R C LFE Ls Rs
Sampling rate               : 48.0 kHz
Frame rate                  : 31.250 FPS (1536 SPF)
Bit depth                   : 16 bits
Compression mode            : Lossy
Stream size                 : 415 MiB (3%)
Title                       : License
Language                    : Ukrainian
Service kind                : Complete Main
Default                     : No
Forced                      : No

Audio #4
ID                          : 5
Format                      : DTS
Format/Info                 : Digital Theater Systems
Codec ID                    : A_DTS
Duration                    : 2 h 9 min
Bit rate mode               : Constant
Bit rate                    : 1 509 kb/s
Channel(s)                  : 6 channels
Channel layout              : C L R Ls Rs LFE
Sampling rate               : 48.0 kHz
Frame rate                  : 93.750 FPS (512 SPF)
Bit depth                   : 24 bits
Compression mode            : Lossy
Stream size                 : 1.37 GiB (10%)
Title                       : Original
Language                    : English
Default                     : No
Forced                      : No

Text #1
ID                          : 6
Format                      : UTF-8
Codec ID                    : S_TEXT/UTF8
Codec ID/Info               : UTF-8 Plain Text
Duration                    : 2 h 4 min
Bit rate                    : 0 b/s
Count of elements           : 12
Stream size                 : 546 Bytes (0%)
Title                       : Forced
Language                    : Russian
Default                     : Yes
Forced                      : Yes

Text #2
ID                          : 7
Format                      : UTF-8
Codec ID                    : S_TEXT/UTF8
Codec ID/Info               : UTF-8 Plain Text
Duration                    : 2 h 8 min
Bit rate                    : 92 b/s
Count of elements           : 1518
Stream size                 : 86.7 KiB (0%)
Title                       : Full
Language                    : Russian
Default                     : No
Forced                      : No

Text #3
ID                          : 8
Format                      : UTF-8
Codec ID                    : S_TEXT/UTF8
Codec ID/Info               : UTF-8 Plain Text
Duration                    : 2 h 5 min
Bit rate                    : 63 b/s
Count of elements           : 1895
Stream size                 : 58.7 KiB (0%)
Title                       : Full
Language                    : English
Default                     : No
Forced                      : No

Text #4
ID                          : 9
Format                      : UTF-8
Codec ID                    : S_TEXT/UTF8
Codec ID/Info               : UTF-8 Plain Text
Duration                    : 2 h 5 min
Bit rate                    : 71 b/s
Count of elements           : 2115
Stream size                 : 65.8 KiB (0%)
Title                       : SDH
Language                    : English
Default                     : No
Forced                      : No

Menu
00:00:00.000                : en:Chapter 01
00:03:41.388                : en:Chapter 02
00:09:00.415                : en:Chapter 03
00:14:14.604                : en:Chapter 04
00:21:43.010                : en:Chapter 05
00:28:14.401                : en:Chapter 06
00:36:07.082                : en:Chapter 07
00:41:01.751                : en:Chapter 08
00:45:58.673                : en:Chapter 09
00:53:18.070                : en:Chapter 10
00:58:11.321                : en:Chapter 11
01:03:51.703                : en:Chapter 12
01:09:56.776                : en:Chapter 13
01:12:53.786                : en:Chapter 14
01:17:21.846                : en:Chapter 15
01:26:19.674                : en:Chapter 16
01:33:29.312                : en:Chapter 17
01:35:53.373                : en:Chapter 18
01:39:10.486                : en:Chapter 19
01:42:20.092                : en:Chapter 20
01:46:12.408                : en:Chapter 21
01:53:14.121                : en:Chapter 22
01:58:18.675                : en:Chapter 23
02:03:48.671                : en:Chapter 24



Скриншоты:
[+] Всего файлов в раздаче - 1:
Widows.2018.Lic.BDRip.1080p.seleZen.mkv14.19 GB

Показать еще раздачи по запросу вдовы:
2019-02-10 U Вдовы / Widows (2018) BDRip от ExKinoRay | Лицензия 1К1.46 GB ↑ 62 ↓ 24
2019-02-10 U Вдовы / Widows (2018) BDRip от ExKinoRay | Лицензия 2.18 GB ↑ 47 ↓ 36
2019-02-10 U Вдовы / Widows (2018) BDRip 720p от селезень | Лицензия 9.53 GB ↑ 48 ↓ 17
2019-02-10 U Вдовы / Widows (2018) HDRip-AVC | Лицензия 744.21 MB ↑ 50 ↓ 13
2019-02-09 U Вдовы / Widows (2018) BDRip-AVC от OlLanDGroup | Лицензия 2.06 GB ↑ 189 ↓ 47
2019-02-09 U Вдовы / Widows (2018) BDRip от MegaPeer | Лицензия 2.18 GB ↑ 78 ↓ 62
2019-02-09 U Вдовы / Widows (2018) BDRip 1080p от HDReactor | Лицензия 7.76 GB ↑ 695 ↓ 77

Отзывы
Зарегистрируйтесь чтобы добавить комментарий.
Обратная связь
Copyleft ©