↑↓Torrent.by
Поиск
Логин: Регистрация
Пароль: Восстановить пароль
Загрузка...

Неопалимый Феникс [01-04 серии из 04] (2018) WEB-DLRip от Files-x

Скачать neopalimyy-feniks-01-04-serii-iz-2018-web-dlrip-ot-files-x.torrent
U Магнитная ссылка Размер: 2.22 GB Раздают: 74 Качают: 33 Добавлен: 2019-02-10 06:57:00
Неопалимый Феникс [01-04 серии из 04] (2018) WEB-DLRip от Files-x

Оригинальное название: Неопалимый Феникс
Год выхода: 2018
Жанр: Мелодрама, детектив
Режиссер: Дмитрий Аверин
В ролях: Татьяна Колганова, Илья Носков, Валентина Панина, Екатерина Панасюк, Игорь Головин, Антон Сычёв, Денис Пьянов, Амин Хуратов, Виктория Плоп, Кирилл Балобан, Алексей Копылов, Никита Барсуков, Наталья Мызникова, Евгения Свиридова, Алёна Баркова

О фильме:
Кажется, у хозяйки популярного городского музыкального кафе Алёны Дубровицкой началась чёрная полоса – отношения с родными не ладятся, личная жизнь не складывается, а с членами её клуба одно за другим происходят страшные события, к тому же ей самой угрожает опасность... Как выбраться из череды неудач и спасти собственную жизнь?

Страна: Россия
Студия: Хитфильм Продакшн
Продолжительность: 4 x ~ 00:44:00
Перевод: Не требуется

Файл
Кодек: XviD
Качество: WEB-DLRip
Видео: XviD, ~ 1700 Кбит/с, 720x400, 25 кадр/с
Звук: AC3, 2 ch, 192 Кбит/с
Субтитры: Нет

Релиз:


[+] MediaInfo
General
Complete name : C:UsersuserDownloadsVideo1.Неопалимый Феникс.(2019).WEB-DLRip.Files-x..avi
Format : AVI
Format/Info : Audio Video Interleave
File size : 570 MiB
Duration : 44mn 12s
Overall bit rate : 1 802 Kbps
Writing application : VirtualDubMod 1.5.10.3 | www.virtualdub-fr.org || (build 2550/release)
Writing library : VirtualDubMod build 2550/release

Video
ID : 0
Format : MPEG-4 Visual
Format profile : Advanced Simple@L5
Format settings, BVOP : 1
Format settings, QPel : No
Format settings, GMC : No warppoints
Format settings, Matrix : Custom
Codec ID : XVID
Codec ID/Hint : XviD
Duration : 44mn 12s
Bit rate : 1 600 Kbps
Width : 720 pixels
Height : 400 pixels
Display aspect ratio : 16:9
Frame rate : 25.000 fps
Color space : YUV
Chroma subsampling : 4:2:0
Bit depth : 8 bits
Scan type : Progressive
Compression mode : Lossy
Bits/(Pixel*Frame) : 0.222
Stream size : 506 MiB (89%)
Writing library : XviD 73

Audio
ID : 1
Format : AC-3
Format/Info : Audio Coding 3
Mode extension : CM (complete main)
Codec ID : 2000
Duration : 44mn 12s
Bit rate mode : Constant
Bit rate : 192 Kbps
Channel(s) : 2 channels
Channel positions : Front: L R
Sampling rate : 48.0 KHz
Bit depth : 16 bits
Compression mode : Lossy
Stream size : 60.7 MiB (11%)
Alignment : Split accross interleaves
Interleave, duration : 40 ms (1.00 video frame)
Interleave, preload duration : 500 ms



Скриншоты:
[+] Всего файлов в раздаче - 4:
01.Неопалимый Феникс.(2019).WEB-DLRip.Files-x..avi569.54 MB
02.Неопалимый Феникс.(2019).WEB-DLRip.Files-x..avi561.91 MB
03.Неопалимый Феникс.(2019).WEB-DLRip.Files-x..avi577.87 MB
04.Неопалимый Феникс.(2019).WEB-DLRip.Files-x..avi567.27 MB

Похожие раздачи по запросу - неопалимый:
2019-02-10 U Неопалимый Феникс [01-04 из 04] (2018) WEB-DLRip-AVC от Files-x 2.21 GB ↑ 63 ↓ 32
2019-02-09 U Неопалимый Феникс [01х01-04 из 04] (2019) SATRip-AVC 2.33 GB ↑ 18 ↓ 5

Отзывы
Зарегистрируйтесь чтобы добавить комментарий.
Обратная связь
Copyleft ©