↑↓Torrent.by
Поиск
Логин: Регистрация
Пароль: Восстановить пароль
Загрузка...

Полуночный человек / The Midnight Man (2017) BDRip 1080p | iTunes

Скачать polunochnyy-chelovek-the-midnight-man-2017-bdrip-1080p-itunes.torrent
U Магнитная ссылка Размер: 7.05 GB Раздают: 68 Качают: 14 Добавлен: 2019-02-10 06:58:00
Полуночный человек / The Midnight Man (2017) BDRip 1080p | iTunes

Название: Полуночный человек
Оригинальное название: The Midnight Man
Год выхода: 2017
Жанр: Ужасы
Режиссер: Трэвис Заривны
В ролях: Лин Шэй, Габриэль Хоф, Грэйсон Сзакакс, Эмили Хейн, Саммер Х. Хауэлл, Луиз Линтон, Майкл Сироу, Роберт Инглунд, Логан Креран, Калли Лэйн

О фильме:
Алекс переехала в дом к своей бабушке, чтобы заботиться о ней. Разбираясь в хламе на чердаке, она обнаружила старинную настольную игру, с помощью которой можно вызвать мистическое существо, известное как Полуночный человек. Вместе со своими друзьями героиня фильма решает сыграть в нее, однако подростки и не подозревают о том, что Полуночный человек существует на самом деле и вскоре он появится, чтобы воплотить наяву их самые страшные кошмары.

Страна: США, Канада
Студия: Bridge Finance Company, Midnight Productions
Продолжительность: 01:32:56
Перевод: Профессиональный (полное дублирование) | iTunes

Файл
Кодек: x.264
Качество: BDRip 1080p | The.Midnight.Man.2017.1080p.BluRay.x264-RUSTED
Видео: MPEG-4 AVC, 8585 Kбит/с, 1920x808, 23.976 кадр/с
Аудио #1: Русский ( АС3, 6ch, 384 Кбит/с, 48.0 KHz) Профессиональный (дублированный) iTunes
Аудио #2: Итальянский ( АС3, 6ch, 384 Кбит/с, 48.0 KHz)
Аудио #3: Английский ( DTS, 6ch, 1509 Кбит/с, 48.0 KHz)
Субтитры: Русские, английские


[+] MediaInfo
Источник: The.Midnight.Man.2017.1080p.BluRay.x264-RUSTED
General
Unique ID                      : 216188872215506030002445550960264314311 (0xA2A47656F44280CC9286EC6D536B7DC7)
Complete name                  : The.Midnight.Man.2016.BDRip.1080p.mkv
Format                         : Matroska
Format version                 : Version 4 / Version 2
File size                      : 7.05 GiB
Duration                       : 1 h 32 min
Overall bit rate               : 10.9 Mb/s
Encoded date                   : UTC 2019-01-31 13:37:06
Writing application            : mkvmerge v7.1.0 ('Good Love') 64bit built on Jul 27 2014 13:06:55
Writing library                : libebml v1.3.0 + libmatroska v1.4.1

Video
ID                             : 1
Format                         : AVC
Format/Info                    : Advanced Video Codec
Format profile                 : High@L4.1
Format settings, CABAC         : Yes
Format settings, RefFrames     : 5 frames
Codec ID                       : V_MPEG4/ISO/AVC
Duration                       : 1 h 32 min
Bit rate                       : 8 585 kb/s
Width                          : 1 920 pixels
Height                         : 808 pixels
Display aspect ratio           : 2.40:1
Frame rate mode                : Constant
Frame rate                     : 23.976 (24000/1001) FPS
Color space                    : YUV
Chroma subsampling             : 4:2:0
Bit depth                      : 8 bits
Scan type                      : Progressive
Bits/(Pixel*Frame)             : 0.231
Stream size                    : 5.57 GiB (79%)
Writing library                : x264 core 155 r2901 7d0ff22
Encoding settings              : cabac=1 / ref=5 / deblock=1:-1:-1 / analyse=0x3:0x133 / me=umh / subme=8 / psy=1 / psy_rd=1.00:0.15 / mixed_ref=1 / me_range=16 / chroma_me=1 / trellis=1 / 8x8dct=1 / cqm=0 / deadzone=21,11 / fast_pskip=0 / chroma_qp_offset=-4 / threads=24 / lookahead_threads=4 / sliced_threads=0 / nr=0 / decimate=1 / interlaced=0 / bluray_compat=0 / constrained_intra=0 / bframes=3 / b_pyramid=2 / b_adapt=2 / b_bias=0 / direct=3 / weightb=1 / open_gop=0 / weightp=2 / keyint=240 / keyint_min=23 / scenecut=40 / intra_refresh=0 / rc_lookahead=50 / rc=2pass / mbtree=1 / bitrate=8585 / ratetol=1.0 / qcomp=0.60 / qpmin=10 / qpmax=69 / qpstep=4 / cplxblur=20.0 / qblur=0.5 / ip_ratio=1.40 / aq=1:1.00
Language                       : English
Default                        : Yes
Forced                         : No

Audio #1
ID                             : 2
Format                         : AC-3
Format/Info                    : Audio Coding 3
Format settings, Endianness    : Big
Codec ID                       : A_AC3
Duration                       : 1 h 32 min
Bit rate mode                  : Constant
Bit rate                       : 384 kb/s
Channel(s)                     : 6 channels
Channel positions              : Front: L C R, Side: L R, LFE
Sampling rate                  : 48.0 kHz
Frame rate                     : 31.250 FPS (1536 SPF)
Bit depth                      : 16 bits
Compression mode               : Lossy
Stream size                    : 255 MiB (4%)
Title                          : DUB | iTunes
Language                       : Russian
Service kind                   : Complete Main
Default                        : Yes
Forced                         : No

Audio #2
ID                             : 3
Format                         : AC-3
Format/Info                    : Audio Coding 3
Format settings, Endianness    : Big
Codec ID                       : A_AC3
Duration                       : 1 h 32 min
Bit rate mode                  : Constant
Bit rate                       : 384 kb/s
Channel(s)                     : 6 channels
Channel positions              : Front: L C R, Side: L R, LFE
Sampling rate                  : 48.0 kHz
Frame rate                     : 31.250 FPS (1536 SPF)
Bit depth                      : 16 bits
Compression mode               : Lossy
Stream size                    : 255 MiB (4%)
Language                       : Italian
Service kind                   : Complete Main
Default                        : No
Forced                         : No

Audio #3
ID                             : 4
Format                         : DTS
Format/Info                    : Digital Theater Systems
Mode                           : 16
Format settings, Endianness    : Big
Codec ID                       : A_DTS
Duration                       : 1 h 32 min
Bit rate mode                  : Constant
Bit rate                       : 1 509 kb/s
Channel(s)                     : 6 channels
Channel positions              : Front: L C R, Side: L R, LFE
Sampling rate                  : 48.0 kHz
Frame rate                     : 93.750 FPS (512 SPF)
Bit depth                      : 24 bits
Compression mode               : Lossy
Stream size                    : 1 003 MiB (14%)
Language                       : English
Default                        : No
Forced                         : No

Text #1
ID                             : 5
Format                         : UTF-8
Codec ID                       : S_TEXT/UTF8
Codec ID/Info                  : UTF-8 Plain Text
Duration                       : 1 h 25 min
Bit rate                       : 62 b/s
Count of elements              : 1098
Stream size                    : 39.2 KiB (0%)
Language                       : Russian
Default                        : No
Forced                         : No

Text #2
ID                             : 6
Format                         : UTF-8
Codec ID                       : S_TEXT/UTF8
Codec ID/Info                  : UTF-8 Plain Text
Duration                       : 1 h 28 min
Bit rate                       : 39 b/s
Count of elements              : 893
Stream size                    : 25.8 KiB (0%)
Language                       : English
Default                        : No
Forced                         : No

Menu
00:00:00.000                   : en:00:00:00.000
00:09:41.998                   : en:00:09:41.998
00:18:07.336                   : en:00:18:07.336
00:29:51.790                   : en:00:29:51.790
00:39:59.063                   : en:00:39:59.063
00:50:03.500                   : en:00:50:03.500
01:01:34.024                   : en:01:01:34.024
01:12:01.150                   : en:01:12:01.150
01:22:21.019                   : en:01:22:21.019



Скриншоты:
[+] Всего файлов в раздаче - 1:
The.Midnight.Man.2017.BDRip.1080p.mkv7.05 GB

Показать еще раздачи по запросу полуночный:
2018-02-22 U Полуночный человек / The Midnight Man (2017) WEB-DL 720р | iTunes 2.92 GB ↑ 66 ↓ 38
2018-02-22 U Полуночный человек / The Midnight Man (2017) WEB-DLRip | iTunes 1.37 GB ↑ 435 ↓ 46
2018-02-22 U Полуночный человек / The Midnight Man (2017) WEB-DL 1080р | iTunes 1К3.09 GB ↑ 226 ↓ 65
2018-01-27 U Полуночный человек / The Midnight Man (2017) WEB-DL 720p | Line 1К3.14 GB ↑ 436 ↓ 149
2018-01-26 U Полуночный человек / The Midnight Man (2017) WEB-DLRip-AVC от ExKinoRay | Line 1.38 GB ↑ 74 ↓ 29
2018-01-26 U Полуночный человек / The Midnight Man (2017) WEB-DLRip от ExKinoRay | Line 1.45 GB ↑ 1277 ↓ 213
2016-10-25 U Специальный полуночный выпуск / Midnight Special (2016) BDRip-AVC от HELLYWOOD | L 1.46 GB ↑ 416 ↓ 117

Отзывы
Зарегистрируйтесь чтобы добавить комментарий.
Обратная связь
Copyleft ©