↑↓Torrent.by
Поиск
Логин: Регистрация
Пароль: Восстановить пароль
Загрузка...

Тёмное зеркало / Look Away (2018) WEB-DLRip | iTunes

Скачать temnoe-zerkalo-look-away-2018-web-dlrip-itunes.torrent
U Магнитная ссылка Размер: 745.99 MB Раздают: 50 Качают: 21 Добавлен: 2019-02-10 06:58:28
Тёмное зеркало / Look Away (2018) WEB-DLRip | iTunes

Название: Тёмное зеркало
Оригинальное название: Look Away
Год выпуска: 2018
Жанр:  Триллер
Режиссер: Асаф Бернштейн
В ролях: Индиа Айсли, Джейсон Айзекс, Пенелопа Митчелл, Мира Сорвино, Харрисон Гилбертсон, Кристен Харрис, Адам Хертиг, Джон С. МакДональд, Коннор Питерсон, Кристина Сеговиа

О фильме:
18-летняя старшеклассница Мария нелюбима родителями и отвергнута сверстниками. Будучи изгоем, она доверяет все свои секреты и переживания своему отражению в зеркале, своему воображаемому злому близнецу, который поддерживает, поощряет и знает все ее тайны. Однажды она меняется местами со своим двойником, который начинает воплощать самые дикие и необузданные желания.

Страна: США, Канада
Студия: Primary Wave Entertainment, Dana Lustig Productions, Buffalo Gal Pictures
Продолжительность: 01:43:04
Перевод: Дублированный [iTunes]

Файл
Кодек: XviD
Качество: WEB-DLRip
Видео: 875 Кбит/с, 688x288
Звук: Русский (MP3, 2 ch, 128 Кбит/с)

Без Рекламы

Релиз:


[+] MI

General
Complete name               : D:Тёмное зеркало.2018.WEB-DLRip.Kinozal-Reliz.avi
Format                      : AVI
Format/Info                 : Audio Video Interleave
File size                   : 746 MiB
Duration                    : 1 h 43 min
Overall bit rate            : 1 012 kb/s
Writing application         : VirtualDubMod 1.5.10.3 | www.virtualdub-fr.org || (build 2550/release)
Writing library             : VirtualDubMod build 2550/release

Video
ID                          : 0
Format                      : MPEG-4 Visual
Format profile              : Advanced Simple@L5
Format settings             : BVOP1 / Custom Matrix
Format settings, BVOP       : 1
Format settings, QPel       : No
Format settings, GMC        : No warppoints
Format settings, Matrix     : Custom
Codec ID                    : XVID
Codec ID/Hint               : XviD
Duration                    : 1 h 43 min
Bit rate                    : 875 kb/s
Width                       : 688 pixels
Height                      : 288 pixels
Display aspect ratio        : 2.40:1
Frame rate                  : 23.976 (24000/1001) FPS
Color space                 : YUV
Chroma subsampling          : 4:2:0
Bit depth                   : 8 bits
Scan type                   : Progressive
Compression mode            : Lossy
Bits/(Pixel*Frame)          : 0.184
Stream size                 : 645 MiB (86%)
Writing library             : XviD 73

Audio
ID                          : 1
Format                      : MPEG Audio
Format version              : Version 1
Format profile              : Layer 3
Codec ID                    : 55
Codec ID/Hint               : MP3
Duration                    : 1 h 43 min
Bit rate mode               : Constant
Bit rate                    : 128 kb/s
Channel(s)                  : 2 channels
Sampling rate               : 48.0 kHz
Frame rate                  : 41.667 FPS (1152 SPF)
Compression mode            : Lossy
Stream size                 : 94.4 MiB (13%)
Alignment                   : Aligned on interleaves
Interleave, duration        : 42  ms (1.00 video frame)
Interleave, preload duratio : 504  ms
Writing library             : LAME3.99r
Encoding settings           : -m s -V 4 -q 2 -lowpass 17 -b 128



Скриншоты:
[+] Всего файлов в раздаче - 1:
Тёмное зеркало.2018.WEB-DLRip.Kinozal-Reliz.avi745.99 MB

Отзывы
Зарегистрируйтесь чтобы добавить комментарий.
Обратная связь
Copyleft ©