↑↓Torrent.by
Поиск
Логин: Регистрация
Пароль: Восстановить пароль
Загрузка...

Пчелы делают мед / Bees Make Honey (2017) WEB-DL 1080p | Jaskier

Скачать pchely-delayut-med-bees-make-honey-2017-web-dl-1080p-jaskier.torrent
U Магнитная ссылка Размер: 3.33 GB Раздают: 41 Качают: 12 Добавлен: 2019-02-10 06:58:54
Пчелы делают мед / Bees Make Honey (2017) WEB-DL 1080p | Jaskier

Название: Пчелы делают мед
Оригинальное название: Bees Make Honey
Год выхода: 2017
Жанр: драма, мелодрама, комедия, детектив
Режиссер: Джек Ив
В ролях: Элис Ив, Гермиона Корфилд, Жозефин де ля Бом, Тревор Ив, Вилф Шведский, Джош МакГуайр, Иванно Джеремайя, Анатоль Таубман, Хлоя МакКлей, Линдси Элизабет

О фильме:
События разворачиваются в 1934 году на элитной вечеринке в честь Хэллоуина. Главная героиня по имени Хани, муж которой был убит ровно год назад, пытается воссоздать картину происшедшего, чтобы выяснить, кто именно виновен в смерти её супруга.

Страна: Великобритания
Студия: Xploseve, AJR Features, Flexibon Films
Продолжительность: 01:24:54
Перевод: профессиональный многоголосый, закадровый [Jaskier]

Файл
Кодек: H.264
Качество: WEB-DL 1080p
Видео: AVC, 1916x1032 (1.857), 24 fps ~ 4727 Kbps
Звук:
AC3, 48 KHz, 6 ch ~ 384 Kb/s (русский)
AC3, 48 KHz, 6 ch ~ 384 Kb/s (английский)
Субтитры: английские


[+] MI:

Общее
Уникальный идентификатор : 223324930347381622019662396317776600718 (0xA802D12B65655EA2BBA6F8D4EFC5DE8E)
Полное имя : Q:TorFBees Make Honey 2017 WEB-DL 1080p.mkv
Формат : Matroska
Версия формата : Version 4 / Version 2
Размер файла : 3,33 Гбайт
Продолжительность : 1 ч. 24 м.
Общий поток : 5607 Кбит/сек
Дата кодирования : UTC 2018-12-09 16:05:46
Программа кодирования : mkvmerge v6.1.0 ('Old Devil') built on Mar 2 2013 14:32:37
Библиотека кодирования : libebml v1.3.0 + libmatroska v1.4.0

Видео
Идентификатор : 1
Формат : AVC
Формат/Информация : Advanced Video Codec
Профиль формата : High@L4.0
Параметр CABAC формата : Да
Параметр ReFrames формата : 4 кадра
Идентификатор кодека : V_MPEG4/ISO/AVC
Продолжительность : 1 ч. 24 м.
Битрейт : 4727 Кбит/сек
Ширина : 1916 пикселей
Высота : 1032 пикселя
Соотношение сторон : 1,857
Частота кадров : 24,000 кадра/сек
Цветовое пространство : YUV
Субдискретизация насыщенности : 4:2:0
Битовая глубина : 8 бит
Тип развёртки : Прогрессивная
Бит/(Пиксели*Кадры) : 0.100
Размер потока : 2,80 Гбайт (84%)
Язык : English
Default : Да
Forced : Нет
Основные цвета : BT.709-5, BT.1361, IEC 61966-2-4, SMPTE RP177
Характеристики трансфера : BT.709-5, BT.1361
Коэффициенты матрицы : BT.709-5, BT.1361, IEC 61966-2-4 709, SMPTE RP177

Аудио #1
Идентификатор : 2
Формат : AC-3
Формат/Информация : Audio Coding 3
Расширение режима : CM (complete main)
Идентификатор кодека : A_AC3
Продолжительность : 1 ч. 24 м.
Вид битрейта : Постоянный
Битрейт : 384 Кбит/сек
Каналы : 6 каналов
Расположение каналов : Front: L C R, Side: L R, LFE
Частота : 48,0 КГц
Битовая глубина : 16 бит
Метод сжатия : С потерями
Размер потока : 233 Мбайт (7%)
Язык : Russian
Default : Да
Forced : Нет

Аудио #2
Идентификатор : 3
Формат : AC-3
Формат/Информация : Audio Coding 3
Расширение режима : CM (complete main)
Идентификатор кодека : A_AC3
Продолжительность : 1 ч. 24 м.
Вид битрейта : Постоянный
Битрейт : 384 Кбит/сек
Каналы : 6 каналов
Расположение каналов : Front: L C R, Side: L R, LFE
Частота : 48,0 КГц
Битовая глубина : 16 бит
Метод сжатия : С потерями
Размер потока : 233 Мбайт (7%)
Язык : English
Default : Нет
Forced : Нет

Текст
Идентификатор : 4
Формат : UTF-8
Идентификатор кодека : S_TEXT/UTF8
Идентификатор кодека/Информация : UTF-8 Plain Text
Язык : English
Default : Нет
Forced : Нет

Меню
00:00:00.000 : en:Chapter 1
00:16:54.625 : en:Chapter 2
00:33:16.625 : en:Chapter 3
00:46:42.208 : en:Chapter 4
01:01:01.999 : en:Chapter 5
01:19:16.999 : en:Chapter 6



Скриншоты:
[+] Всего файлов в раздаче - 1:
Bees Make Honey 2017 WEB-DL 1080p.mkv3.33 GB

Похожие раздачи по запросу - пчелы:
2013-09-24 U Удивительный мир животных. Пчёлы (2004) PDF 86.45 MB ↑ 983 ↓ 4

Отзывы
NIK9601
Весьма странное кино, вполне серьезная детективно-драматическая история, которая по неизвестной науке причине снята в жанре эксцентричной комедийно-музыкальной театральной постановки, стилизованной под саму себя, евпочя, то есть персонажи делают вид, будто принимают в этой самой постановке участие. Кино продукт семейного подряда, в главной роли Элис Ив, в одной из главных ролей её папаша Тревор Ив, ну и её братец Джек Ив в качестве автора этой феерии, и все они британцы, что многое объясняет. Сама Элис Ив хорошая актриса, играла в театре, здесь тоже выглядит вполне достойно, мейкап скрывает повышенную зубастость, порой она даже красива, остальные актеры тоже неплохи, причем они явно понимают, как играть и что тут вообще происходит, в отличие от зрителей кстати. Визуально тут все очень симпатично и стильно, снято тоже нормально и даже весьма динамично, но почему был выбран именно такой способ подачи сюжета - понять совершенно невозможно, из-за этого историю трудно воспринимать всерьез, да её вообще сложно воспринимать, а ведь здесь есть интрига, правда, почти вся она читается в первые 10 минут, но персонажи взаимодействуют, они разные, что-то происходит, но как можно во все это поверить, если постоянно такое впечатление, что герои вот-вот запоют опереточную арию и пустятся в пляс, кстати, они здесь таки регулярно пляшут, хорошо, что хоть не поют. Качество отличное, перевод и озвучка ок, но как-то звук не очень наложен, музыка очень громкая (а музыки тут очень много), а оригинальные голоса очень тихие, если так спецом сделано, то не надо так.
Если присмотреться повнимательнее, то окажется, что и история жиденькая, и персонажи не раскрыты, и побочных сюжетных линий нет как таковых, так что есть мысль, что такая стилизация сделана с умыслом, чтобы скрыть убожество сюжета, если так, то это в некотором смысле сработало, но само кино от этого интереснее не стало. Фанатам Элис Ив можно глянуть на свою разноцветноглазую любовь посреди буйства красок и винтажных декораций, любителям гротеска и театра тоже почему бы не попробовать, остальным лучше выбрать что-то более традиционное, иначе потом долго будете сидеть с выражением лица "и что это нахрен было?" - я сейчас как раз сижу с таким.

faza20
NIK9601
круто)) скопипастил, или сам набил на клаве?

Зарегистрируйтесь чтобы добавить комментарий.
Обратная связь
Copyleft ©