↑↓Torrent.by
Поиск
Логин: Регистрация
Пароль: Восстановить пароль
Загрузка...

Химера / Braid (2018) WEB-DLRip (AVC) | iTunes

Скачать himera-braid-2018-web-dlrip-avc-itunes.torrent
U Магнитная ссылка Размер: 1.46 GB Раздают: 152 Качают: 12 Добавлен: 2019-02-10 08:15:49
Химера / Braid (2018) WEB-DLRip (AVC) | iTunes

Название: Химера
Оригинальное название: Braid
Год выпуска: 2018
Жанр:  Ужасы, триллер, детектив
Режиссер: Митци Пейроне
В ролях: Мадлен Брюэр, Сара Хэй, Скотт Коэн, Имоджен Уотерхаус, Мэри Лурман, Дхони Миддлтон, Джилл Далтон, Таи Лин Сандху, Маурицио Овейлл, Брэд Калькатерра

О фильме:
Чтобы провернуть ограбление, художницы-авантюристки Петула и Тильда затевают игру в «дочки-матери» с безумной хозяйкой таинственного особняка. Но скоро преступницы оказываются в зловещем лабиринте кошмаров, извращений и галлюцинаций, полном болезненных фантазий и садистских пыток. Кто выйдет живым из этого смертельного квеста?

Страна: США
Студия: Wandering Bard, Somnia Productions
Продолжительность: 01:24:53
Перевод: Дублированный [iTunes]

Файл
Кодек: MPEG-4 AVC
Качество: WEB-DLRip (AVC)
Видео: 2170 Кбит/с, 1024x424
Звук: Русский (AC3, 6 ch, 384 Кбит/с)

Без Рекламы

Релиз:


[+] MI

General
Unique ID                   : 206997071491412485308221678034589807977 (0x9BBA2F931DF57105BC8CE30D77AB7569)
Complete name               : D:Химера.2019.WEB-DLRip (AVC).Kinozal-Reliz.mkv
Format                      : Matroska
Format version              : Version 2
File size                   : 1.46 GiB
Duration                    : 1 h 21 min
Overall bit rate            : 2 556 kb/s
Encoded date                : UTC 2019-02-07 22:59:30
Writing application         : mkvmerge v7.8.0 ('River Man') 32bit built on Apr  3 2015 12:11:22
Writing library             : libebml v1.3.1 + libmatroska v1.4.2

Video
ID                          : 1
Format                      : AVC
Format/Info                 : Advanced Video Codec
Format profile              : High@L4.1
Format settings             : CABAC / 10 Ref Frames
Format settings, CABAC      : Yes
Format settings, ReFrames   : 10 frames
Codec ID                    : V_MPEG4/ISO/AVC
Duration                    : 1 h 21 min
Bit rate                    : 2 170 kb/s
Width                       : 1 024 pixels
Height                      : 424 pixels
Display aspect ratio        : 2.40:1
Frame rate mode             : Constant
Frame rate                  : 25.000 FPS
Color space                 : YUV
Chroma subsampling          : 4:2:0
Bit depth                   : 8 bits
Scan type                   : Progressive
Bits/(Pixel*Frame)          : 0.200
Stream size                 : 1.21 GiB (83%)
Writing library             : x264 core 146 r2538 121396c
Encoding settings           : cabac=1 / ref=10 / deblock=1:0:0 / analyse=0x3:0x113 / me=umh / subme=9 / psy=1 / psy_rd=1.00:0.00 / mixed_ref=1 / me_range=16 / chroma_me=1 / trellis=2 / 8x8dct=1 / cqm=0 / deadzone=21,11 / fast_pskip=0 / chroma_qp_offset=-2 / threads=6 / lookahead_threads=1 / sliced_threads=0 / nr=0 / decimate=1 / interlaced=0 / bluray_compat=0 / constrained_intra=0 / bframes=3 / b_pyramid=2 / b_adapt=2 / b_bias=0 / direct=3 / weightb=1 / open_gop=0 / weightp=2 / keyint=250 / keyint_min=25 / scenecut=40 / intra_refresh=0 / rc_lookahead=50 / rc=2pass / mbtree=1 / bitrate=2170 / ratetol=1.0 / qcomp=0.60 / qpmin=0 / qpmax=69 / qpstep=4 / cplxblur=20.0 / qblur=0.5 / vbv_maxrate=14000 / vbv_bufsize=14000 / nal_hrd=none / filler=0 / ip_ratio=1.40 / aq=1:1.00
Default                     : Yes
Forced                      : No

Audio
ID                          : 2
Format                      : AC-3
Format/Info                 : Audio Coding 3
Commercial name             : Dolby Digital
Codec ID                    : A_AC3
Duration                    : 1 h 21 min
Bit rate mode               : Constant
Bit rate                    : 384 kb/s
Channel(s)                  : 6 channels
Channel layout              : L R C LFE Ls Rs
Sampling rate               : 48.0 kHz
Frame rate                  : 31.250 FPS (1536 SPF)
Bit depth                   : 16 bits
Compression mode            : Lossy
Stream size                 : 224 MiB (15%)
Service kind                : Complete Main
Default                     : Yes
Forced                      : No



Скриншоты:
[+] Всего файлов в раздаче - 1:
Химера.2019.WEB-DLRip (AVC).Kinozal-Reliz.mkv1.46 GB

Похожие раздачи по запросу - химера:
2019-02-08 U Химера / Braid (2018) WEB-DLRip | iTunes 1.37 GB ↑ 122 ↓ 22
2016-10-16 U Мельница - Химера (2016) MP3 104.34 MB ↑ 884 ↓ 7

Отзывы
Зарегистрируйтесь чтобы добавить комментарий.
Обратная связь
Copyleft ©