↑↓Torrent.by
Поиск
Логин: Регистрация
Пароль: Восстановить пароль
Загрузка...

Робин Гуд: Начало / Robin Hood (2018) WEB-DL 1080p | HDrezka Studio

Скачать robin-gud-nachalo-hood-2018-web-dl-1080p-hdrezka-studio.torrent
U Магнитная ссылка Размер: 4.14 GB Раздают: 2274 Качают: 708 Добавлен: 2019-02-10 13:42:38
Робин Гуд: Начало / Robin Hood (2018) WEB-DL 1080p | HDrezka Studio

Название: Робин Гуд: Начало
Оригинальное название: Robin Hood
Год выхода: 2018
Жанр:  боевик, триллер, приключения
Режиссер: Отто Батхёрст
В ролях: Тэрон Эджертон, Джейми Фокс, Бен Мендельсон, Ив Хьюсон, Джейми Дорнан, Тим Минчин, Пол Андерсон, Ф. Мюррэй Абрахам, Йен Пек, Корнелиус Бут

Описание: Ветеран Крестовых походов Робин и его командир бросают вызов продажным приспешникам английской короны.

Страна: США
Продолжительность: 01:56:07
Перевод: Профессиональный (Многоголосый, Закадровый) (HDrezka Studio)

Файл
Формат: MKV
Качество: WEB-DL 1080p (Источник: Robin.Hood.2018.1080p.WEB-DL.DD5.1.H264-FGT)
Видео: 1920x798 (2.40:1), 23.976 fps, 4424 kbps, 0.120 bit/pixel
Аудио #1: AC-3, 2 ch, 192 kbps (Многоголосый HDrezka Studio)
Аудио #2: AC-3, 6 ch, 384 kbps (Английский Оригинал)
Навигация: Есть


[+] MediaInfo
General
Unique ID                                : 206980787394061738954118470264971115329 (0x9BB70CB4E99FFA5D8422CCA4CCF4BB41)
Complete name                            : Robin.Hood.2018.WEB.DL.1080p.MVO.HDrezka.Studio.mkv
Format                                   : Matroska
Format version                           : Version 2
File size                                : 4.14 GiB
Duration                                 : 1 h 56 min
Overall bit rate                         : 5 102 kb/s
Encoded date                             : UTC 2019-02-10 03:36:45
Writing application                      : mkvmerge v5.6.0 ('Kenya Kane') built on May 27 2012 16:44:04
Writing library                          : libebml v1.2.3 + libmatroska v1.3.0
Cover                                    : Yes
Attachments                              : Cover.png

Video
ID                                       : 1
Format                                   : AVC
Format/Info                              : Advanced Video Codec
Format profile                           : High@L4
Format settings                          : CABAC / 5 Ref Frames
Format settings, CABAC                   : Yes
Format settings, RefFrames               : 5 frames
Codec ID                                 : V_MPEG4/ISO/AVC
Duration                                 : 1 h 56 min
Bit rate                                 : 4 424 kb/s
Width                                    : 1 920 pixels
Height                                   : 798 pixels
Display aspect ratio                     : 2.40:1
Frame rate mode                          : Constant
Frame rate                               : 23.976 FPS
Color space                              : YUV
Chroma subsampling                       : 4:2:0
Bit depth                                : 8 bits
Scan type                                : Progressive
Bits/(Pixel*Frame)                       : 0.120
Stream size                              : 3.59 GiB (87%)
Language                                 : English
Default                                  : Yes
Forced                                   : No
Color range                              : Limited
Color primaries                          : BT.709
Transfer characteristics                 : BT.709
Matrix coefficients                      : BT.709

Audio #1
ID                                       : 2
Format                                   : AC-3
Format/Info                              : Audio Coding 3
Codec ID                                 : A_AC3
Duration                                 : 1 h 56 min
Bit rate mode                            : Constant
Bit rate                                 : 192 kb/s
Channel(s)                               : 2 channels
Channel positions                        : Front: L R
Sampling rate                            : 48.0 kHz
Frame rate                               : 31.250 FPS (1536 SPF)
Bit depth                                : 16 bits
Compression mode                         : Lossy
Stream size                              : 159 MiB (4%)
Title                                    : Многоголосый 2.0 (HDrezka Studio)
Language                                 : Russian
Service kind                             : Complete Main
Default                                  : Yes
Forced                                   : No

Audio #2
ID                                       : 3
Format                                   : AC-3
Format/Info                              : Audio Coding 3
Codec ID                                 : A_AC3
Duration                                 : 1 h 56 min
Bit rate mode                            : Constant
Bit rate                                 : 384 kb/s
Channel(s)                               : 6 channels
Channel positions                        : Front: L C R, Side: L R, LFE
Sampling rate                            : 48.0 kHz
Frame rate                               : 31.250 FPS (1536 SPF)
Bit depth                                : 16 bits
Compression mode                         : Lossy
Stream size                              : 319 MiB (8%)
Title                                    : Английский 5.1 (Оригинал)
Language                                 : English
Service kind                             : Complete Main
Default                                  : No
Forced                                   : No

Menu
00:00:00.000                             : :Chapter 01
00:01:17.000                             : :Chapter 02
00:12:23.000                             : :Chapter 03
00:21:52.000                             : :Chapter 04
00:30:11.000                             : :Chapter 05
00:39:28.000                             : :Chapter 06
00:48:14.000                             : :Chapter 07
00:59:04.000                             : :Chapter 08
01:10:31.000                             : :Chapter 09
01:21:30.000                             : :Chapter 10
01:29:44.000                             : :Chapter 11
01:39:35.000                             : :Chapter 12
01:44:49.000                             : :Chapter 13



Скриншоты:
[+] Всего файлов в раздаче - 1:
Robin.Hood.2018.WEB.DL.1080p.MVO.HDrezka.Studio.mkv4.14 GB

Показать еще раздачи по запросу робин:
2019-02-11 U Робин Гуд: Начало / Robin Hood (2018) HDRip-AVC от ExKinoRay | HDrezka Studio 744.63 MB ↑ 111 ↓ 26
2019-02-11 U Робин Гуд: Начало / Robin Hood (2018) HDRip от Scarabey | HDRezka Studio 1.45 GB ↑ 129 ↓ 37
2019-02-11 U Робин Гуд: Начало / Robin Hood (2018) BDRip 1080p | HDRezka Studio 1К8.10 GB ↑ 433 ↓ 129
2019-02-10 U Робин Гуд: Начало / Robin Hood (2018) HDRip от MegaPeer | HDrezka Studio 1.46 GB ↑ 689 ↓ 423
2019-02-09 U Робин Гуд: Начало / Robin Hood (2018) WEB-DLRip | Line | UKR 1.46 GB ↑ 68 ↓ 21
2018-12-02 U Кристофер Робин / Christopher Robin (2018) BDRip 720p от селезень | Лицензия 5.92 GB ↑ 277 ↓ 80
2018-12-02 U Кристофер Робин / Christopher Robin (2018) BDRip 1080p от qqss44 & MegaPeer | Лицензия 7.75 GB ↑ 201 ↓ 75

Отзывы
Зарегистрируйтесь чтобы добавить комментарий.
Обратная связь
Copyleft ©