↑↓Torrent.by
Поиск
Логин: Регистрация
Пароль: Восстановить пароль
Загрузка...

Тень / Shadow / Ying (2018) WEB-DL 1080p | HDRezka Studio

Скачать ten-shadow-ying-2018-web-dl-1080p-hdrezka-studio.torrent
U Магнитная ссылка Размер: 4.18 GB Раздают: 444 Качают: 175 Добавлен: 2019-02-10 13:42:45
Тень / Shadow / Ying (2018) WEB-DL 1080p | HDRezka Studio

Название: Тень
Оригинальное название: Shadow / Ying
Год выхода: 2018
Жанр: боевик, драма, история
Режиссер: Чжан Имоу
В ролях: Ден Чао, Сунь Ли, Чжэн Кай, Ван Цяньюань, Ван Цзинчунь, Ху Цзюнь, Гуань Сяотун, У Лэй

О фильме:
Эпоха Троецарствия. Без ведома короля командующий Цзы Юй вызвал на дуэль генерала Яна, который захватил и удерживает город государства Пэй. Из-за своенравия командующий попадет в немилость правителя и лишается привилегий, но свою затею не оставляет. Только жена умирающего Юя знает, что вместо супруга уже целый год действует Тень, ещё с детства специально обученный двойник, а сам Юй сидит взаперти и строит коварные планы.

Страна: Китай, Гонконг
Студия: Perfect Village Entertainment, LeVision Pictures, Shanghai Tencent Pictures Culture Media
Продолжительность: 01:55:38
Перевод: профессиональный многоголосый, закадровый [HDRezka Studio]

Файл
Кодек: H.264
Качество: WEB-DL 1080p
Видео: AVC, 1920x800 (2.40:1), 25 fps ~ 4875 Kbps
Звук: AC3, 48 KHz, 2 ch ~ 192 Kb/s
Субтитры: английские, китайские (хардсаб)


[+] MI:

Общее
Уникальный идентификатор : 326670645509510488195772769514006506943 (0xF5C27A520321D850ADD7560F7FC7EDBF)
Полное имя : Q:TorFТень.Ying.2018.WEB-DL.1080p.MVO.NNMClub.mkv
Формат : Matroska
Версия формата : Version 4 / Version 2
Размер файла : 4,18 Гбайт
Продолжительность : 1 ч. 55 м.
Общий поток : 5171 Кбит/сек
Дата кодирования : UTC 2019-02-09 06:01:49
Программа кодирования : mkvmerge v30.1.0 ('Forever And More') 64-bit
Библиотека кодирования : libebml v1.3.6 + libmatroska v1.4.9
DURATION : 01:55:48.448000000
NUMBER_OF_FRAMES : 217139
NUMBER_OF_BYTES : 166762752
_STATISTICS_WRITING_APP : mkvmerge v30.1.0 ('Forever And More') 64-bit
_STATISTICS_WRITING_DATE_UTC : 2019-02-09 06:01:49
_STATISTICS_TAGS : BPS DURATION NUMBER_OF_FRAMES NUMBER_OF_BYTES

Видео
Идентификатор : 1
Формат : AVC
Формат/Информация : Advanced Video Codec
Профиль формата : High@L4.0
Параметр CABAC формата : Да
Параметр ReFrames формата : 4 кадра
Идентификатор кодека : V_MPEG4/ISO/AVC
Продолжительность : 1 ч. 55 м.
Битрейт : 4876 Кбит/сек
Ширина : 1920 пикселей
Высота : 800 пикселей
Соотношение сторон : 2,40:1
Режим частоты кадров : Переменный
Частота кадров : 25,000 кадров/сек
Цветовое пространство : YUV
Субдискретизация насыщенности : 4:2:0
Битовая глубина : 8 бит
Тип развёртки : Прогрессивная
Бит/(Пиксели*Кадры) : 0.127
Размер потока : 3,94 Гбайт (94%)
Библиотека кодирования : Provided by www.letv.com :: H.264/MPEG-4 AVC codec -V 1.6.08
Язык : Chinese
Default : Да
Forced : Нет

Аудио
Идентификатор : 2
Формат : AC-3
Формат/Информация : Audio Coding 3
Расширение режима : CM (complete main)
Идентификатор кодека : A_AC3
Продолжительность : 1 ч. 55 м.
Вид битрейта : Постоянный
Битрейт : 192 Кбит/сек
Каналы : 2 канала
Расположение каналов : Front: L R
Частота : 48,0 КГц
Битовая глубина : 16 бит
Метод сжатия : С потерями
Размер потока : 159 Мбайт (4%)
Заголовок : MVO-HDRezka Studio
Язык : Russian
Default : Да
Forced : Нет



Скриншоты:
[+] Всего файлов в раздаче - 1:
Тень.Ying.2018.WEB-DL.1080p.MVO.NNMClub.mkv4.18 GB

Показать еще раздачи по запросу тень:
2019-03-29 U Тень / Ying / Shadow (2018) BDRip 720р | D, P | iTunes 5.54 GB ↑ 144 ↓ 59
2019-03-29 U Тень / Ying / Shadow (2018) BDRip 1080р | D, P | iTunes 8.40 GB ↑ 96 ↓ 46
2019-02-02 U Тень закона / La sombra de la ley / Gun City (2018) BDRip от MegaPeer | HDRezka Studio 1К1.46 GB ↑ 121 ↓ 42
2019-01-16 U Тень / Shadow / Ying (2018) WEB-DLRip-AVC от Batafurai Team и SOUND-GROUP | L2 2.06 GB ↑ 221 ↓ 46
2018-11-19 U Тень [01-02 из 02] (2018) HDTVRip от ExKinoRay 1.46 GB ↑ 56 ↓ 26
2018-11-19 U Тень закона / La sombra de la ley / Gun City (2018) WEB-DLRip-AVC от New-Team | L2 | HiWay Grope 1.52 GB ↑ 46 ↓ 17
2018-11-18 U Тень закона / La sombra de la ley / Gun City (2018) WEB-DL 1080p от New-Team | L2 | HiWay Grope 4.60 GB ↑ 125 ↓ 56

Отзывы
Зарегистрируйтесь чтобы добавить комментарий.
Обратная связь
Copyleft ©