↑↓Torrent.by
Поиск
Логин: Регистрация
Пароль: Восстановить пароль
Загрузка...

Не волнуйся, он далеко не уйдет / Don't Worry, He Won't Get Far on Foot (2018) BDRip 720p | P2, P | iTunes

Скачать ne-volnuysya-on-daleko-uydet-don-t-worry-he-won-get-far-foot-2018-bdrip-720p-p2-p-itunes.torrent
U Магнитная ссылка Размер: 5.50 GB Раздают: 142 Качают: 82 Добавлен: 2019-02-10 13:43:24
Не волнуйся, он далеко не уйдет / Don't Worry, He Won't Get Far on Foot (2018) BDRip 720p | P2, P | iTunes

Название: Не волнуйся, он далеко не уйдет  
Оригинальное название: Don't Worry, He Won't Get Far on Foot
Год выхода: 2018
Жанр: Драма, комедия, биография
Режиссер: Гас Ван Сент
В ролях: Хоакин Феникс, Джона Хилл, Руни Мара, Джек Блэк, Тони Гринхэнд, Бет Дитто, Марк Веббер, Ронни Адриан, Ким Гордон, Удо Кир

О фильме:
Джон не умел вовремя останавливаться, когда дело касалось быстрой езды, красивых женщин и опасных шуток. Прихватив случайного приятеля на вечеринке, он садится в машину и чудом остаётся в живых. С этого момента начинается горькая и вдохновляющая, правдивая и трогательная история человека, который потерял все, и вынужден двигаться дальше, чтобы обрести себя как одного из самых талантливых художников-карикатуристов Америки.

Страна: Франция, США
Студия: Amazon Studios, Anonymous Content, Big Indie Pictures, Iconoclast
Продолжительность: 01:54:19
Перевод:
                   • Профессиональный (двухголосый, закадровый) | iTunes
                   • Профессиональный (многоголосый закадровый) | HDrezka Studio

Файл
Качество: BDRip 720p
Формат: MKV
Кодек: MPEG-4 AVC
Видео: 1280x720 (16:9), 23,976 fps, MPEG-4 AVC ~ 5000 Кbps avg, 0.226 bit/pixel
Аудио: AC3, 48 kHz, 2 ch, ~192.00 kbps avg | русский | iTunes
Аудио: AC3, 48 kHz, 2 ch, ~192.00 kbps avg | русский | HDrezka Studios
Аудио: DTS, 48 kHz, 6 ch, ~1509.00 kbps avg | английский | Оригинал

Субтитры: Русские (Full), английские (Full, SDH)
Семпл


[+] Инфо-файл
Общее
Уникальный идентификатор                 : 275194366720188703579009744356426149693 (0xCF0881D3E1BC39B0566A339CF3E46F3D)
Полное имя                               : Don't.Worry.He.Won't.Get.Far.on.Foot.2018.BluRay.720p.DD2.0.x264.Rus.Eng.mkv
Формат                                   : Matroska
Версия формата                           : Version 4 / Version 2
Размер файла                             : 5,50 Гбайт
Продолжительность                        : 1 ч. 54 м.
Общий поток                              : 6885 Кбит/сек
Название фильма                          : Не волнуйся, он далеко не уйдёт (2018)
Дата кодирования                         : UTC 2019-02-10 04:31:51
Программа кодирования                    : mkvmerge v27.0.0 ('Metropolis') 64-bit
Библиотека кодирования                   : libebml v1.3.6 + libmatroska v1.4.9
Обложка                                  : Yes
Attachments                              : cover.jpg

Видео
Идентификатор                            : 1
Формат                                   : AVC
Формат/Информация                        : Advanced Video Codec
Профиль формата                          : High@L4.1
Настройки формата                        : CABAC / 9 Ref Frames
Параметр CABAC формата                   : Да
Параметр RefFrames формата               : 9 кадров
Идентификатор кодека                     : V_MPEG4/ISO/AVC
Продолжительность                        : 1 ч. 54 м.
Битрейт                                  : 5000 Кбит/сек
Ширина                                   : 1280 пикселей
Высота                                   : 720 пикселей
Соотношение сторон                       : 16:9
Режим частоты кадров                     : Постоянный
Частота кадров                           : 23,976 (24000/1001) кадра/сек
Цветовое пространство                    : YUV
Субдискретизация насыщенности            : 4:2:0
Битовая глубина                          : 8 бит
Тип развёртки                            : Прогрессивная
Бит/(Пиксели*Кадры)                      : 0.226
Размер потока                            : 3,98 Гбайт (72%)
Заголовок                                : CHD
Библиотека кодирования                   : x264 core 155 r2901 7d0ff22
Настройки программы                      : cabac=1 / ref=9 / deblock=1:-3:-3 / analyse=0x3:0x113 / me=umh / subme=10 / psy=1 / psy_rd=1.05:0.10 / mixed_ref=1 / me_range=32 / chroma_me=1 / trellis=2 / 8x8dct=1 / cqm=0 / deadzone=21,11 / fast_pskip=0 / chroma_qp_offset=-2 / threads=18 / lookahead_threads=1 / sliced_threads=0 / nr=0 / decimate=1 / interlaced=0 / bluray_compat=0 / constrained_intra=0 / bframes=6 / b_pyramid=2 / b_adapt=2 / b_bias=0 / direct=3 / weightb=1 / open_gop=0 / weightp=2 / keyint=250 / keyint_min=23 / scenecut=40 / intra_refresh=0 / rc=2pass / mbtree=0 / bitrate=5000 / ratetol=1.0 / qcomp=0.70 / qpmin=0 / qpmax=69 / qpstep=4 / cplxblur=20.0 / qblur=0.5 / ip_ratio=1.40 / pb_ratio=1.30 / aq=3:1.00
Default                                  : Да
Forced                                   : Нет

Аудио #1
Идентификатор                            : 2
Формат                                   : AC-3
Формат/Информация                        : Audio Coding 3
Идентификатор кодека                     : A_AC3
Продолжительность                        : 1 ч. 54 м.
Вид битрейта                             : Постоянный
Битрейт                                  : 192 Кбит/сек
Каналы                                   : 2 канала
Расположение каналов                     : Front: L R
Частота                                  : 48,0 КГц
Частота кадров                           : 31,250 кадров/сек (1536 SPF)
Битовая глубина                          : 16 бит
Метод сжатия                             : С потерями
Размер потока                            : 157 Мбайт (3%)
Заголовок                                : DVO | iTunes
Язык                                     : Russian
Default                                  : Да
Forced                                   : Нет

Аудио #2
Идентификатор                            : 3
Формат                                   : AC-3
Формат/Информация                        : Audio Coding 3
Идентификатор кодека                     : A_AC3
Продолжительность                        : 1 ч. 54 м.
Вид битрейта                             : Постоянный
Битрейт                                  : 192 Кбит/сек
Каналы                                   : 2 канала
Расположение каналов                     : Front: L R
Частота                                  : 48,0 КГц
Частота кадров                           : 31,250 кадров/сек (1536 SPF)
Битовая глубина                          : 16 бит
Метод сжатия                             : С потерями
Размер потока                            : 157 Мбайт (3%)
Заголовок                                : DVO | HDrezka Studio
Язык                                     : Russian
Default                                  : Нет
Forced                                   : Нет

Аудио #3
Идентификатор                            : 4
Формат                                   : DTS
Формат/Информация                        : Digital Theater Systems
Идентификатор кодека                     : A_DTS
Продолжительность                        : 1 ч. 54 м.
Вид битрейта                             : Постоянный
Битрейт                                  : 1509 Кбит/сек
Каналы                                   : 6 каналов
Расположение каналов                     : Front: L C R, Side: L R, LFE
Частота                                  : 48,0 КГц
Частота кадров                           : 93,750 кадра/сек (512 SPF)
Битовая глубина                          : 24 бит
Метод сжатия                             : С потерями
Размер потока                            : 1,21 Гбайт (22%)
Заголовок                                : Original
Язык                                     : English
Default                                  : Нет
Forced                                   : Нет

Текст #1
Идентификатор                            : 5
Формат                                   : UTF-8
Идентификатор кодека                     : S_TEXT/UTF8
Идентификатор кодека/Информация          : UTF-8 Plain Text
Продолжительность                        : 1 ч. 48 м.
Битрейт                                  : 103 бит/сек
ElementCount                             : 1701
Размер потока                            : 82,3 Кбайт (0%)
Заголовок                                : Full
Язык                                     : Russian
Default                                  : Нет
Forced                                   : Нет

Текст #2
Идентификатор                            : 6
Формат                                   : UTF-8
Идентификатор кодека                     : S_TEXT/UTF8
Идентификатор кодека/Информация          : UTF-8 Plain Text
Продолжительность                        : 1 ч. 53 м.
Битрейт                                  : 66 бит/сек
ElementCount                             : 1778
Размер потока                            : 55,4 Кбайт (0%)
Заголовок                                : Full
Язык                                     : English
Default                                  : Нет
Forced                                   : Нет

Текст #3
Идентификатор                            : 7
Формат                                   : UTF-8
Идентификатор кодека                     : S_TEXT/UTF8
Идентификатор кодека/Информация          : UTF-8 Plain Text
Продолжительность                        : 1 ч. 53 м.
Битрейт                                  : 74 бит/сек
ElementCount                             : 1946
Размер потока                            : 61,5 Кбайт (0%)
Заголовок                                : SDH
Язык                                     : English
Default                                  : Нет
Forced                                   : Нет

Меню
00:00:00.000                             : :00:00:00.000
00:07:49.761                             : :00:07:49.761
00:13:09.622                             : :00:13:09.622
00:21:26.076                             : :00:21:26.076
00:27:13.966                             : :00:27:13.966
00:35:06.479                             : :00:35:06.479
00:42:30.673                             : :00:42:30.673
00:48:53.556                             : :00:48:53.556
00:56:36.310                             : :00:56:36.310
01:02:30.497                             : :01:02:30.497
01:09:25.953                             : :01:09:25.953
01:17:00.282                             : :01:17:00.282
01:23:36.637                             : :01:23:36.637
01:31:06.544                             : :01:31:06.544
01:37:58.748                             : :01:37:58.748
01:46:20.833                             : :01:46:20.833



Скриншоты:
[+] Всего файлов в раздаче - 1:

Похожие раздачи по запросу - волнуйся:
2019-02-10 U Не волнуйся, он далеко не уйдет / Don't Worry, He Won't Get Far on Foot (2018) BDRip 1080p | P2, P | iTunes 9.09 GB ↑ 194 ↓ 129
2019-02-10 U Не волнуйся, он далеко не уйдёт / Don't Worry, He Won't Get Far on Foot (2018) BDRip от MegaPeer | iTunes 1.46 GB ↑ 340 ↓ 112
2018-10-10 U Не волнуйся, он далеко не уйдёт / Don't Worry, He Won't Get Far on Foot (2018) BDRip-AVC от OlLanDGroup | HDRezka Studio 2.32 GB ↑ 204 ↓ 26
2018-10-10 U Не волнуйся, он далеко не уйдёт / Don't Worry, He Won't Get Far on Foot (2018) BDRip 1080p | HDRezka Studio 1К8.90 GB ↑ 173 ↓ 73
2018-10-10 U Не волнуйся, он далеко не уйдёт / Don't Worry, He Won't Get Far on Foot (2018) BDRip от MegaPeer | HDRezka Studio 1.46 GB ↑ 173 ↓ 54

Отзывы
Зарегистрируйтесь чтобы добавить комментарий.
Обратная связь
Copyleft ©