↑↓Torrent.by
Поиск
Логин: Регистрация
Пароль: Восстановить пароль
Загрузка...

Явление / The Appearance (2018) WEB-DLRip - AVC | HDRezka Studio

Скачать yavlenie-the-appearance-2018-web-dlrip-avc-hdrezka-studio.torrent
U Магнитная ссылка Размер: 1.58 GB Раздают: 72 Качают: 20 Добавлен: 2019-02-11 08:21:58
Явление / The Appearance (2018) WEB-DLRip - AVC | HDRezka Studio

Название: Явление
Оригинальное название: The Appearance
Год выпуска: 2018
Жанр:  Ужасы, триллер
Режиссер: Курт Найт
В ролях: Джейк Стормоен, Кристиан Нэйрн, Адам Джонсон, Майкл Флинн, Байли Селф, Кен Браун, Джон Хинкли

О фильме:
Действие фильма разворачивается в средние века. Молодой инквизитор Матео прибывает в отдаленный монастырь вместе со своим преданным товарищем Джонни, чтобы расследовать серию загадочных и ужасающих убийств, в которых обвинили предполагаемую «ведьму». Сам Матео является человеком науки и руководствуется лишь неопровержимыми доказательствами, не слишком доверяя предположением местных жителей. Однако вскоре он становится свидетелем событий, которые не может объяснить ни одна наука, и лично убеждается в том, что в монастыре поселилось истинное зло…

Страна: США
Студия: Camera 40 Productions, Hive Entertainment
Продолжительность: 01:51:46
Перевод: Профессиональный многоголосый [HDRezka Studio]

Файл
Кодек: MPEG-4 AVC
Качество: WEB-DLRip AVC
Видео: 1829 Кбит/с, 1024x424
Звук: Русский (AC3, 2 ch, 192 Кбит/с)

Без Рекламы

Релиз:


[+] MI

General
Unique ID                   : 185083228223268677004327601677194734401 (0x8B3DBBAF51A7344985FFE0535BB3AB41)
Complete name               : D:Явление .2018.WEB-DLRip (AVC).Kinozal-Reliz.mkv
Format                      : Matroska
Format version              : Version 2
File size                   : 1.58 GiB
Duration                    : 1 h 51 min
Overall bit rate            : 2 022 kb/s
Encoded date                : UTC 2019-02-09 23:05:12
Writing application         : mkvmerge v7.8.0 ('River Man') 32bit built on Apr  3 2015 12:11:22
Writing library             : libebml v1.3.1 + libmatroska v1.4.2

Video
ID                          : 1
Format                      : AVC
Format/Info                 : Advanced Video Codec
Format profile              : High@L4.1
Format settings             : CABAC / 10 Ref Frames
Format settings, CABAC      : Yes
Format settings, ReFrames   : 10 frames
Codec ID                    : V_MPEG4/ISO/AVC
Duration                    : 1 h 51 min
Bit rate                    : 1 829 kb/s
Width                       : 1 024 pixels
Height                      : 424 pixels
Display aspect ratio        : 2.40:1
Frame rate mode             : Constant
Frame rate                  : 23.976 FPS
Color space                 : YUV
Chroma subsampling          : 4:2:0
Bit depth                   : 8 bits
Scan type                   : Progressive
Bits/(Pixel*Frame)          : 0.176
Stream size                 : 1.40 GiB (89%)
Writing library             : x264 core 146 r2538 121396c
Encoding settings           : cabac=1 / ref=10 / deblock=1:0:0 / analyse=0x3:0x113 / me=umh / subme=9 / psy=1 / psy_rd=1.00:0.00 / mixed_ref=1 / me_range=16 / chroma_me=1 / trellis=2 / 8x8dct=1 / cqm=0 / deadzone=21,11 / fast_pskip=0 / chroma_qp_offset=-2 / threads=6 / lookahead_threads=1 / sliced_threads=0 / nr=0 / decimate=1 / interlaced=0 / bluray_compat=0 / constrained_intra=0 / bframes=2 / b_pyramid=2 / b_adapt=2 / b_bias=0 / direct=3 / weightb=1 / open_gop=0 / weightp=2 / keyint=250 / keyint_min=23 / scenecut=40 / intra_refresh=0 / rc_lookahead=50 / rc=2pass / mbtree=1 / bitrate=1829 / ratetol=1.0 / qcomp=0.60 / qpmin=0 / qpmax=69 / qpstep=4 / cplxblur=20.0 / qblur=0.5 / vbv_maxrate=14000 / vbv_bufsize=14000 / nal_hrd=none / filler=0 / ip_ratio=1.40 / aq=1:1.00
Default                     : Yes
Forced                      : No

Audio
ID                          : 2
Format                      : AC-3
Format/Info                 : Audio Coding 3
Commercial name             : Dolby Digital
Codec ID                    : A_AC3
Duration                    : 1 h 51 min
Bit rate mode               : Constant
Bit rate                    : 192 kb/s
Channel(s)                  : 2 channels
Channel layout              : L R
Sampling rate               : 48.0 kHz
Frame rate                  : 31.250 FPS (1536 SPF)
Bit depth                   : 16 bits
Compression mode            : Lossy
Stream size                 : 154 MiB (9%)
Service kind                : Complete Main
Default                     : Yes
Forced                      : No



Скриншоты:
[+] Всего файлов в раздаче - 1:
Явление .2018.WEB-DLRip (AVC).Kinozal-Reliz.mkv1.58 GB

Показать еще раздачи по запросу явление:
2019-02-19 U Явление / The Appearance (2018) BDRip-AVC от OlLanDGroup | HDRezka Studio 1.89 GB ↑ 200 ↓ 62
2019-02-19 U Явление / The Appearance (2018) BDRip 1080p от OlLanDGroup | HDRezka Studio 12.01 GB ↑ 7 ↓ 8
2019-02-11 U Явление / The Appearance (2018) WEB-DLRip-AVC | HDRezka Studio 1К745.04 MB ↑ 40 ↓ 5
2019-01-25 U Явление / The Appearance (2018) WEB-DL 1080p от OlLanDGroup | HDRezka Studio 4.42 GB ↑ 180 ↓ 96
2019-01-19 U Явление / L'apparition (2018) BDRip от MegaPeer | HDRezka Studio 1.46 GB ↑ 143 ↓ 54
2018-12-17 U Явление / The Appearance (2018) WEBRip 720p | L2 2.39 GB ↑ 69 ↓ 24
2018-12-17 U Явление / The Appearance (2018) WEBRip | L2 1.50 GB ↑ 95 ↓ 34

Отзывы
Зарегистрируйтесь чтобы добавить комментарий.
Обратная связь
Copyleft ©