↑↓Torrent.by
Поиск
Логин: Регистрация
Пароль: Восстановить пароль
Загрузка...

Мелкий бес (1995) DVDRip-AVC от KORSAR

Скачать melkiy-bes-1995-dvdrip-avc-ot-korsar.torrent
U Магнитная ссылка Размер: 2.98 GB Раздают: 35 Качают: 12 Добавлен: 2019-02-11 08:22:54
Мелкий бес (1995) DVDRip-AVC от KORSAR

Мелкий бес

Страна: Россия
Жанр:  Драма, комедия
Год выпуска: 1995
Продолжительность: 01:46:42
Перевод: Не требуется

Режиссер: Николай Досталь
В ролях: Сергей Тарамаев , Ирина Розанова , Полина Кутепова , Алексей Елистратов , Сергей Баталов ,
Алексей Миронов , Геннадий Назаров , Агриппина Стеклова , Ксения Кутепова и др.

Описание: Ардальон Борисович Передонов - типичный "человек в футляре". В молодые годы он возлагал на будущее честолюбивые надежды.
Но время шло, и Ардальон превратился в маниакального шизофреника, преподающего в гимназии.
Ему кажется, что он - жертва доносов, обмана и преследований..

Кодек: х264
Качество: DVDRip-AVC
Видео: MPEG-4 AVC, 3320 Кбит/с, 714х576@761x576, 25 fps,
Аудио: АС3, 6 сh, 448 Кбит/с, АС3, 1 сh, 224 Кбит/с
Субтитры: Нет
Главы: Есть


[+] Инфо файл

x264 [info]: frame I:827   Avg QP:18.60  size: 79759
x264 [info]: frame P:31726 Avg QP:20.87  size: 38796
x264 [info]: frame B:127497 Avg QP:22.84  size: 10663

Общее
Уникальный идентификатор                 : 232401079787072505558353086342024225496 (0xAED6D1E2CD7FB191A12D7B998CFD62D8)
Полное имя                               : H:СССРМелкий бес 1995_DVDRip-AVC_KORSAR.mkv
Формат                                   : Matroska
Версия формата                           : Version 2
Размер файла                             : 2,98 Гбайт
Продолжительность                        : 1 ч. 46 м.
Общий поток                              : 3993 Кбит/сек
Дата кодирования                         : UTC 2019-02-09 16:13:09
Программа кодирования                    : mkvmerge v5.8.0 ('No Sleep / Pillow') built on Sep  2 2012 15:37:04
Библиотека кодирования                   : libebml v1.2.3 + libmatroska v1.3.0

Видео
Идентификатор                            : 1
Формат                                   : AVC
Формат/Информация                        : Advanced Video Codec
Профиль формата                          : High@L4.1
Настройки формата                        : CABAC / 16 Ref Frames
Параметр CABAC формата                   : Да
Параметр RefFrames формата               : 16 кадров
Идентификатор кодека                     : V_MPEG4/ISO/AVC
Продолжительность                        : 1 ч. 46 м.
Битрейт                                  : 3320 Кбит/сек
Ширина                                   : 714 пикселей
Высота                                   : 576 пикселей
Соотношение сторон                       : 4:3
Соотношение сторон в оригинале           : 4:3
Режим частоты кадров                     : Постоянный
Частота кадров                           : 25,000 кадров/сек
Цветовое пространство                    : YUV
Субдискретизация насыщенности            : 4:2:0
Битовая глубина                          : 8 бит
Тип развёртки                            : Прогрессивная
Бит/(Пиксели*Кадры)                      : 0.323
Размер потока                            : 2,42 Гбайт (81%)
Библиотека кодирования                   : x264 core 152 r2851kMod ba24899
Настройки программы                      : cabac=1 / ref=16 / deblock=1:-2:-2 / analyse=0x3:0x133 / me=umh / subme=11 / psy=1 / fade_compensate=0.00 / psy_rd=1.05:0.10 / mixed_ref=1 / me_range=48 / chroma_me=1 / trellis=2 / 8x8dct=1 / cqm=0 / deadzone=21,11 / fast_pskip=0 / chroma_qp_offset=-3 / threads=12 / lookahead_threads=3 / sliced_threads=0 / nr=0 / decimate=0 / interlaced=0 / bluray_compat=0 / constrained_intra=0 / bframes=16 / b_pyramid=2 / b_adapt=2 / b_bias=0 / direct=3 / weightb=1 / open_gop=0 / weightp=2 / keyint=250 / keyint_min=25 / scenecut=40 / intra_refresh=0 / rc_lookahead=40 / rc=2pass / mbtree=0 / bitrate=3320 / ratetol=1.0 / qcomp=0.60 / qpmin=0 / qpmax=39 / qpstep=4 / cplxblur=20.0 / qblur=0.5 / vbv_maxrate=50000 / vbv_bufsize=62500 / nal_hrd=none / filler=0 / ip_ratio=1.25 / pb_ratio=1.30 / aq=1:1.00
Язык                                     : English
Default                                  : Да
Forced                                   : Нет
Цветовой диапазон                        : Limited
Основные цвета                           : BT.601 PAL
Характеристики трансфера                 : BT.470 System B, BT.470 System G
Коэффициенты матрицы                     : BT.470 System B, BT.470 System G

Аудио #1
Идентификатор                            : 2
Формат                                   : AC-3
Формат/Информация                        : Audio Coding 3
Параметр Endianness формата              : Big
Идентификатор кодека                     : A_AC3
Продолжительность                        : 1 ч. 46 м.
Вид битрейта                             : Постоянный
Битрейт                                  : 448 Кбит/сек
Каналы                                   : 6 каналов
Расположение каналов                     : Front: L C R, Side: L R, LFE
Частота                                  : 48,0 КГц
Частота кадров                           : 31,250 кадров/сек (1536 SPF)
Битовая глубина                          : 16 бит
Метод сжатия                             : С потерями
Задержка видео                           : 537 мс.
Размер потока                            : 342 Мбайт (11%)
Язык                                     : Russian
Default                                  : Да
Forced                                   : Нет

Аудио #2
Идентификатор                            : 3
Формат                                   : AC-3
Формат/Информация                        : Audio Coding 3
Параметр Endianness формата              : Big
Идентификатор кодека                     : A_AC3
Продолжительность                        : 1 ч. 46 м.
Вид битрейта                             : Постоянный
Битрейт                                  : 224 Кбит/сек
Каналы                                   : 1 канал
Расположение каналов                     : Front: C
Частота                                  : 48,0 КГц
Частота кадров                           : 31,250 кадров/сек (1536 SPF)
Битовая глубина                          : 16 бит
Метод сжатия                             : С потерями
Задержка видео                           : 537 мс.
Размер потока                            : 171 Мбайт (6%)
Язык                                     : Russian
Default                                  : Нет
Forced                                   : Нет

Меню
00:00:00.000                             : en:Chapter 1
00:09:40.800                             : en:Chapter 2
00:19:41.280                             : en:Chapter 3
00:26:42.240                             : en:Chapter 4
00:32:20.640                             : en:Chapter 5
00:42:42.720                             : en:Chapter 6
00:53:55.680                             : en:Chapter 7
00:59:24.960                             : en:Chapter 8
01:04:44.640                             : en:Chapter 9
01:13:03.840                             : en:Chapter 10
01:27:45.600                             : en:Chapter 11
01:36:16.320                             : en:Chapter 12




Скриншоты:
[+] Всего файлов в раздаче - 1:
Мелкий бес 1995_DVDRip-AVC_KORSAR.mkv2.98 GB

Похожие раздачи по запросу - мелкий:
2017-03-06 U Следствие вели... с Леонидом Каневским. Мелкий бес [05.03] (2017) HDTVRip от GeneralFim 1К526.62 MB ↑ 173 ↓ 50
2013-10-15 U Техобслуживание, мелкий ремонт и покраска автомобиля своими руками (2012) DJVU 1К2.57 MB ↑ 253 ↓ 65535

Отзывы
pacavacaca
великий роман, отличное кино. объясняющее почти все про Россию.

Зарегистрируйтесь чтобы добавить комментарий.
Обратная связь
Copyleft ©