↑↓Torrent.by
Поиск
Логин: Регистрация
Пароль: Восстановить пароль
Загрузка...

Богемская рапсодия / Bohemian Rhapsody (2018) BDRip-HEVC 1080p от Kino-mix | Лицензия

Скачать bogemskaya-rapsodiya-bohemian-rhapsody-2018-bdrip-hevc-1080p-ot-kino-mix-licenziya.torrent
U Магнитная ссылка Размер: 7.59 GB Раздают: 35 Качают: 14 Добавлен: 2019-02-11 08:23:18
Богемская рапсодия / Bohemian Rhapsody (2018) BDRip-HEVC 1080p от Kino-mix | Лицензия

Год выхода:  2018
Страна: Великобритания, США
Жанр:  Драма, биография, музыка
Продолжительность: 02:14:37
Перевод: Дублированный (Лицензия)

Режиссер: Брайан Сингер
В главных ролях: Рами Малек, Люси Бойнтон, Гвилим Ли, Бен Харди, Джозеф Маццелло, Майк Майерс, Эйден Гиллен, Том Холландер, Аллен Лич

Описание: Чествование группы Queen, их музыки и их выдающегося вокалиста Фредди Меркьюри, который бросил вызов стереотипам и победил условности, чтобы стать одним из самых любимых артистов на планете. Фильм прослеживает головокружительный путь группы к успеху, благодаря их культовым песням и революционному звуку, практически распад коллектива, поскольку образ жизни Меркьюри выходит из-под контроля, и их триумфальное воссоединение накануне концерта Live Aid, ставшим одним из величайших выступлений в истории рок-музыки.

Качество: BDRip 1080p
Видео: HEVC/H.265, 1920x804, ~6210 Kbps
Аудио 1: DTS, 6 ch, 768 Kbps - Дублированный
Аудио 2: AC3, 6 ch, 448 Kbps - Украинский, дублированный
Аудио 3: AC3, 6 ch, 640 Kbps - Английский
Субтитры: Русские (форсированные, стилизованные, полные), украинские (форсированные, стилизованные, полные), английские

Автор рипа:


[+] Mediainfo
Общее
Уникальный идентификатор                 : 3687653938249900585576187343994512297 (0x2C6376061C5233D96ABB15941E263A9)
Полное имя                               : F:РАЗДАЧИ. Bohemian Rhapsody. 2018. 1080p. HEVC. 10 bit.mkv
Формат                                   : Matroska
Версия формата                           : Version 4 / Version 2
Размер файла                             : 7,59 Гбайт
Продолжительность                        : 2 ч. 14 м.
Общий поток                              : 8070 Кбит/сек
Название фильма                          : Рип от Mr. Fox, специально для сайта Kino-mix
Дата кодирования                         : UTC 2019-02-10 09:54:59
Программа кодирования                    : mkvmerge v28.2.0 ('The Awakening') 64-bit
Библиотека кодирования                   : libebml v1.3.6 + libmatroska v1.4.9
Обложка                                  : Yes
Attachments                              : cover.jpg

Видео
Идентификатор                            : 1
Формат                                   : HEVC
Формат/Информация                        : High Efficiency Video Coding
Профиль формата                          : Main 10@L4.1@High
Идентификатор кодека                     : V_MPEGH/ISO/HEVC
Продолжительность                        : 2 ч. 14 м.
Битрейт                                  : 6210 Кбит/сек
Ширина                                   : 1920 пикселей
Высота                                   : 804 пикселя
Соотношение сторон                       : 2,40:1
Режим частоты кадров                     : Постоянный
Частота кадров                           : 23,976 (23976/1000) кадра/сек
Частота кадров в оригинале               : 23,976 (24000/1001) кадра/сек
Цветовое пространство                    : YUV
Субдискретизация насыщенности            : 4:2:0
Битовая глубина                          : 10 бит
Бит/(Пиксели*Кадры)                      : 0.168
Размер потока                            : 5,84 Гбайт (77%)
Заголовок                                : Рип от Mr. Fox, специально для сайта Kino-mix
Библиотека кодирования                   : x265 2.8+74-fd517ae68f93:[Windows][MSVC 1915][64 bit] 10bit
Настройки программы                      : cpuid=1111039 / frame-threads=13 / numa-pools=12 / wpp / no-pmode / no-pme / no-psnr / no-ssim / log-level=2 / input-csp=1 / input-res=1920x804 / interlace=0 / total-frames=1060 / level-idc=41 / high-tier=1 / uhd-bd=0 / ref=5 / no-allow-non-conformance / no-repeat-headers / annexb / no-aud / no-hrd / info / hash=0 / no-temporal-layers / open-gop / min-keyint=23 / keyint=240 / gop-lookahead=0 / bframes=12 / b-adapt=2 / b-pyramid / bframe-bias=0 / rc-lookahead=60 / lookahead-slices=4 / scenecut=40 / radl=0 / no-intra-refresh / ctu=32 / min-cu-size=8 / rect / amp / max-tu-size=32 / tu-inter-depth=4 / tu-intra-depth=4 / limit-tu=1 / rdoq-level=2 / dynamic-rd=0.00 / no-ssim-rd / signhide / no-tskip / nr-intra=0 / nr-inter=0 / no-constrained-intra / no-strong-intra-smoothing / max-merge=4 / limit-refs=2 / limit-modes / me=3 / subme=7 / merange=57 / temporal-mvp / weightp / weightb / no-analyze-src-pics / deblock=-3:-3 / no-sao / no-sao-non-deblock / rd=6 / no-early-skip / no-rskip / no-fast-intra / no-tskip-fast / no-cu-lossless / no-b-intra / no-splitrd-skip / rdpenalty=0 / psy-rd=2.00 / psy-rdoq=1.00 / no-rd-refine / no-lossless / cbqpoffs=0 / crqpoffs=0 / rc=crf / crf=19.5 / qcomp=0.60 / qpstep=4 / stats-write=0 / stats-read=0 / vbv-maxrate=50000 / vbv-bufsize=50000 / vbv-init=0.9 / crf-max=0.0 / crf-min=0.0 / ipratio=1.40 / pbratio=1.30 / aq-mode=1 / aq-strength=1.00 / no-cutree / zone-count=0 / no-strict-cbr / qg-size=32 / no-rc-grain / qpmax=69 / qpmin=0 / no-const-vbv / sar=1 / overscan=0 / videoformat=5 / range=0 / colorprim=2 / transfer=2 / colormatrix=2 / chromaloc=0 / display-window=0 / max-cll=0,0 / min-luma=0 / max-luma=1023 / log2-max-poc-lsb=8 / vui-timing-info / vui-hrd-info / slices=1 / no-opt-qp-pps / no-opt-ref-list-length-pps / no-multi-pass-opt-rps / scenecut-bias=0.05 / no-opt-cu-delta-qp / no-aq-motion / no-hdr / no-hdr-opt / no-dhdr10-opt / no-idr-recovery-sei / analysis-reuse-level=5 / scale-factor=0 / refine-intra=0 / refine-inter=0 / refine-mv=0 / no-limit-sao / ctu-info=0 / no-lowpass-dct / refine-mv-type=0 / copy-pic=1 / max-ausize-factor=1.0 / no-dynamic-refine / no-single-sei
Default                                  : Да
Forced                                   : Нет

Аудио #1
Идентификатор                            : 2
Формат                                   : DTS
Формат/Информация                        : Digital Theater Systems
Идентификатор кодека                     : A_DTS
Продолжительность                        : 2 ч. 14 м.
Вид битрейта                             : Постоянный
Битрейт                                  : 768 Кбит/сек
Каналы                                   : 6 каналов
Расположение каналов                     : Front: L C R, Side: L R, LFE
Частота                                  : 48,0 КГц
Частота кадров                           : 93,750 кадра/сек (512 SPF)
Битовая глубина                          : 24 бит
Метод сжатия                             : С потерями
Размер потока                            : 739 Мбайт (10%)
Заголовок                                : 48 kHz, DTS, 5.1, 768 Kbps | Дублированный
Язык                                     : Russian
Default                                  : Да
Forced                                   : Да

Аудио #2
Идентификатор                            : 3
Формат                                   : AC-3
Формат/Информация                        : Audio Coding 3
Идентификатор кодека                     : A_AC3
Продолжительность                        : 2 ч. 14 м.
Вид битрейта                             : Постоянный
Битрейт                                  : 448 Кбит/сек
Каналы                                   : 6 каналов
Расположение каналов                     : Front: L C R, Side: L R, LFE
Частота                                  : 48,0 КГц
Частота кадров                           : 31,250 кадров/сек (1536 SPF)
Битовая глубина                          : 16 бит
Метод сжатия                             : С потерями
Размер потока                            : 431 Мбайт (6%)
Заголовок                                : 48 kHz, AC3, 5.1, 448 Kbps | Дублированный
Язык                                     : Ukrainian
ServiceKind/Strin                        : Complete Main
Default                                  : Нет
Forced                                   : Нет

Аудио #3
Идентификатор                            : 4
Формат                                   : AC-3
Формат/Информация                        : Audio Coding 3
Идентификатор кодека                     : A_AC3
Продолжительность                        : 2 ч. 14 м.
Вид битрейта                             : Постоянный
Битрейт                                  : 640 Кбит/сек
Каналы                                   : 6 каналов
Расположение каналов                     : Front: L C R, Side: L R, LFE
Частота                                  : 48,0 КГц
Частота кадров                           : 31,250 кадров/сек (1536 SPF)
Битовая глубина                          : 16 бит
Метод сжатия                             : С потерями
Размер потока                            : 616 Мбайт (8%)
Заголовок                                : 48 kHz, AC3, 5.1, 640 Kbps
Язык                                     : English
ServiceKind/Strin                        : Complete Main
Default                                  : Нет
Forced                                   : Нет

Текст #1
Идентификатор                            : 5
Формат                                   : ASS
Идентификатор кодека                     : S_TEXT/ASS
Идентификатор кодека/Информация          : Advanced Sub Station Alpha
Продолжительность                        : 2 ч. 8 м.
Битрейт                                  : 7 бит/сек
ElementCount                             : 64
Метод сжатия                             : Без потерь
Размер потока                            : 7,11 Кбайт (0%)
Заголовок                                : Forced, стилизованные
Язык                                     : Russian
Default                                  : Да
Forced                                   : Да

Текст #2
Идентификатор                            : 6
Формат                                   : UTF-8
Идентификатор кодека                     : S_TEXT/UTF8
Идентификатор кодека/Информация          : UTF-8 Plain Text
Продолжительность                        : 2 ч. 13 м.
Битрейт                                  : 2 бит/сек
ElementCount                             : 55
Размер потока                            : 2,81 Кбайт (0%)
Заголовок                                : Forced
Язык                                     : Russian
Default                                  : Нет
Forced                                   : Нет

Текст #3
Идентификатор                            : 7
Формат                                   : UTF-8
Идентификатор кодека                     : S_TEXT/UTF8
Идентификатор кодека/Информация          : UTF-8 Plain Text
Продолжительность                        : 2 ч. 13 м.
Битрейт                                  : 72 бит/сек
ElementCount                             : 1753
Размер потока                            : 70,7 Кбайт (0%)
Заголовок                                : Full
Язык                                     : Russian
Default                                  : Нет
Forced                                   : Нет

Текст #4
Идентификатор                            : 8
Формат                                   : ASS
Идентификатор кодека                     : S_TEXT/ASS
Идентификатор кодека/Информация          : Advanced Sub Station Alpha
Продолжительность                        : 2 ч. 8 м.
Битрейт                                  : 7 бит/сек
ElementCount                             : 64
Метод сжатия                             : Без потерь
Размер потока                            : 7,35 Кбайт (0%)
Заголовок                                : Forced, стилизованные
Язык                                     : Ukrainian
Default                                  : Нет
Forced                                   : Нет

Текст #5
Идентификатор                            : 9
Формат                                   : UTF-8
Идентификатор кодека                     : S_TEXT/UTF8
Идентификатор кодека/Информация          : UTF-8 Plain Text
Продолжительность                        : 2 ч. 13 м.
Битрейт                                  : 3 бит/сек
ElementCount                             : 71
Размер потока                            : 3,87 Кбайт (0%)
Заголовок                                : Forced
Язык                                     : Ukrainian
Default                                  : Нет
Forced                                   : Нет

Текст #6
Идентификатор                            : 10
Формат                                   : UTF-8
Идентификатор кодека                     : S_TEXT/UTF8
Идентификатор кодека/Информация          : UTF-8 Plain Text
Продолжительность                        : 2 ч. 13 м.
Битрейт                                  : 77 бит/сек
ElementCount                             : 1753
Размер потока                            : 75,4 Кбайт (0%)
Заголовок                                : Full
Язык                                     : Ukrainian
Default                                  : Нет
Forced                                   : Нет

Текст #7
Идентификатор                            : 11
Формат                                   : UTF-8
Идентификатор кодека                     : S_TEXT/UTF8
Идентификатор кодека/Информация          : UTF-8 Plain Text
Продолжительность                        : 2 ч. 6 м.
Битрейт                                  : 63 бит/сек
ElementCount                             : 2063
Размер потока                            : 58,5 Кбайт (0%)
Заголовок                                : Full
Язык                                     : English
Default                                  : Нет
Forced                                   : Нет

Текст #8
Идентификатор                            : 12
Формат                                   : UTF-8
Идентификатор кодека                     : S_TEXT/UTF8
Идентификатор кодека/Информация          : UTF-8 Plain Text
Продолжительность                        : 2 ч. 11 м.
Битрейт                                  : 92 бит/сек
ElementCount                             : 2269
Размер потока                            : 88,9 Кбайт (0%)
Заголовок                                : SDH Colored
Язык                                     : English
Default                                  : Нет
Forced                                   : Нет

Меню
00:00:00.000                             : en:Chapter 01
00:03:48.728                             : en:Chapter 02
00:07:45.465                             : en:Chapter 03
00:11:16.593                             : en:Chapter 04
00:17:41.811                             : en:Chapter 05
00:21:03.179                             : en:Chapter 06
00:27:24.184                             : en:Chapter 07
00:33:34.846                             : en:Chapter 08
00:37:22.282                             : en:Chapter 09
00:45:24.013                             : en:Chapter 10
00:52:19.595                             : en:Chapter 11
00:56:57.205                             : en:Chapter 12
01:03:11.413                             : en:Chapter 13
01:10:44.991                             : en:Chapter 14
01:15:25.730                             : en:Chapter 15
01:21:45.901                             : en:Chapter 16
01:26:59.172                             : en:Chapter 17
01:32:18.199                             : en:Chapter 18
01:36:43.923                             : en:Chapter 19
01:43:25.574                             : en:Chapter 20
01:50:23.283                             : en:Chapter 21
01:54:22.898                             : en:Chapter 22
02:00:41.109                             : en:Chapter 23
02:07:53.332                             : en:Chapter 24



Скриншоты:
[+] Всего файлов в раздаче - 1:
Bohemian Rhapsody. 2018. 1080p. HEVC. 10 bit.mkv7.59 GB

Показать еще раздачи по запросу богемская:
2019-02-10 U Богемская рапсодия / Bohemian Rhapsody (2018) HDRip от Scarabey | Лицензия 2.17 GB ↑ 58 ↓ 32
2019-02-10 U Богемская рапсодия / Bohemian Rhapsody (2018) HDRip от Scarabey | Лицензия 1.45 GB ↑ 60 ↓ 17
2019-02-09 U Богемская рапсодия / Bohemian Rhapsody (2018) HDRip от Scarabey | Лицензия 794.77 MB ↑ 43 ↓ 10
2019-02-09 U Богемская рапсодия / Bohemian Rhapsody (2018) BDRip 1080p от qqss44 & MegaPeer | Лицензия 7.55 GB ↑ 105 ↓ 33
2019-02-08 U Богемская рапсодия / Bohemian Rhapsody (2018) BDRip 1080p от селезень | Лицензия 14.09 GB ↑ 71 ↓ 57
2019-02-08 U Богемская рапсодия / Bohemian Rhapsody (2018) BDRip 720p от селезень | Лицензия 6.76 GB ↑ 80 ↓ 52
2019-02-08 U Богемская рапсодия / Bohemian Rhapsody (2018) BDRip от MegaPeer | Лицензия 2.18 GB ↑ 81 ↓ 27

Отзывы
Зарегистрируйтесь чтобы добавить комментарий.
Обратная связь
Copyleft ©