↑↓Torrent.by
Поиск
Логин: Регистрация
Пароль: Восстановить пароль
Загрузка...

Последняя битва / Конец пути / Journey's End (2017) BDRip | iTunes

Скачать poslednyaya-bitva-konec-puti-journey-s-end-2017-bdrip-itunes.torrent
U Магнитная ссылка Размер: 1.45 GB Раздают: 278 Качают: 101 Добавлен: 2019-02-11 17:02:39
Последняя битва / Конец пути / Journey's End (2017) BDRip | iTunes

Название: Последняя битва
Оригинальное название: Journey's End
Год выхода: 2017
Жанр: Драма, военный
Страна: Великобритания
Перевод: Дублированный | iTunes
Продолжительность: 01:47:44
Режиссер: Сол Дибб
В ролях: Сэм Клафлин, Эйса Баттерфилд, Пол Беттани, Стивен Грэм, Тоби Джонс, Том Стёрридж, Алаис Лоусон, Энди Гэтергуд, Джек Риддифорд, Адам Колборн и др.

О фильме: Весна 1918 года. Идёт уже четвертый год Первой мировой войны. Молодой и наивный лейтенант Рейли присоединяется на фронте к своему кумиру детства и другу семьи, капитану Стэнхоупу, не подозревая, как тот изменился за годы службы. Какого же было его удивление, когда вместо смелого и решительного человека, он увидел морально раздавленного мужчину, не способного повести за собой своих солдат. Лейтенант Рейли понимает, что для того, чтобы победить и выжить, необходимо взять контроль над ситуацией на себя. Получив известие о том, что войска противника уже близко, солдаты готовятся к неизбежному… К самой масштабной атаке врага за последнее время, намеченной на четверг, 21 марта 1918 года. Отсчёт пошёл…

Файл
Формат: AVI
Качество: BDRip | Journeys.End.2017.REMUX
Видео: Xvid 73, 720x304, ~1537 kbps, 24,000 fps
Звук: русский, AC3, 5.1 ch, 48 kHz, 384 kbps | iTunes
Субтитры: русские (форс. вшитые)

Релиз:


[+] MI
General
Полное имя                               : E:TorrentJourneysEndBDRip.avi
Формат                                   : AVI
Формат/Информация                        : Audio Video Interleave
Профиль формата                          : OpenDML
Размер файла                             : 1.45 GiB
Продолжительность                        : 1 h 47 min
Общий поток                              : 1 933 kb/s
Программа кодирования                    : XviD4PSP 6.0 / 54.27.101

Video
Идентификатор                            : 0
Формат                                   : MPEG-4 Visual
Профиль формата                          : Advanced Simple@L5
Настройки формата                        : BVOP2 / Custom Matrix
Параметр BVOP формата                    : 2
Параметр QPel формата                    : No
Параметр GMC формата                     : No warppoints
Параметр матрицы формата                 : Custom
Идентификатор кодека                     : XVID
Идентификатор кодека/Подсказка           : XviD
Продолжительность                        : 1 h 47 min
Битрейт                                  : 1 537 kb/s
Ширина                                   : 720 pixels
Высота                                   : 304 pixels
Соотношение сторон                       : 2.35:1
Частота кадров                           : 24.000 FPS
Цветовое пространство                    : YUV
Субдискретизация насыщенности            : 4:2:0
Битовая глубина                          : 8 bits
Тип развёртки                            : Progressive
Метод сжатия                             : Lossy
Бит/(Пиксели*Кадры)                      : 0.293
Размер потока                            : 1.16 GiB (80%)
Библиотека кодирования                   : XviD 73

Audio
Идентификатор                            : 1
Формат                                   : AC-3
Формат/Информация                        : Audio Coding 3
Идентификатор кодека                     : 2000
Продолжительность                        : 1 h 47 min
Вид битрейта                             : Constant
Битрейт                                  : 384 kb/s
Каналы                                   : 6 channels
Расположение каналов                     : Front: L C R, Side: L R, LFE
Частота                                  : 48.0 kHz
Частота кадров                           : 31.250 FPS (1536 SPF)
Битовая глубина                          : 16 bits
Метод сжатия                             : Lossy
Размер потока                            : 296 MiB (20%)
Выравнивание                             : Aligned on interleaves
Продолжительность промежутка             : 32  ms (0.77 video frame)




Скриншоты:
[+] Всего файлов в раздаче - 1:
JourneysEndBDRip.avi1.45 GB

Показать еще раздачи по запросу последняя:
2019-02-19 U Улика из прошлого. Последняя тайна Чёрной кошки (2019) SATRip 521.01 MB ↑ 119 ↓ 21
2019-02-15 U Последняя миссия / Attrition (2018) WEB-DL 1080p | iTunes 3.05 GB ↑ 50 ↓ 41
2019-02-15 U Последняя миссия / Attrition (2018) HDRip-AVC | iTunes 2.00 GB ↑ 146 ↓ 23
2019-02-14 U Последняя миссия / Attrition (2018) HDRip | iTunes 1К1.45 GB ↑ 347 ↓ 164
2019-02-13 U Последняя битва / Конец пути / Journey's End (2017) BDRip от MegaPeer | iTunes 1.41 GB ↑ 77 ↓ 10
2019-02-11 U Последняя битва / Конец пути / Journey's End (2017) BDRip 720p | iTunes 1К4.34 GB ↑ 193 ↓ 70
2019-02-11 U Последняя битва / Конец пути / Journey's End (2017) BDRip 1080p | iTunes 7.75 GB ↑ 274 ↓ 138

Отзывы
Зарегистрируйтесь чтобы добавить комментарий.
Обратная связь
Copyleft ©