↑↓Torrent.by
Поиск
Логин: Регистрация
Пароль: Восстановить пароль
Загрузка...

Магазинные воришки / Manbiki kazoku (2018) WEB-DL 1080p | iTunes

Скачать magazinnye-vorishki-manbiki-kazoku-2018-web-dl-1080p-itunes.torrent
U Магнитная ссылка Размер: 4.54 GB Раздают: 145 Качают: 67 Добавлен: 2019-02-12 06:52:08
Магазинные воришки / Manbiki kazoku (2018) WEB-DL 1080p | iTunes

Название: Магазинные воришки
Оригинальное название: Manbiki kazoku
Год выхода: 2018
Жанр: Драма, криминал
Страна: Япония
Перевод: Профессиональный (многоголосый, закадровый) | iTunes
Продолжительность: 02:00:32
Режиссер: Хирокадзу Корээда
В ролях: Рири Фрэнки, Сакура Андо, Маю Мацуока, Дзё Каири, Мию Сасаки, Кирин Кики, Сосукэ Икэмацу, Наото Огата, Ёко Моригути, Юки Ямада и др.

О фильме: Небольшая семья бедного японского рабочего живет практически только на пенсию бабушки, поэтому некоторые из родственников иногда подворовывают в магазинах. Однажды, возвращаясь домой после очередной кражи, глава семейства подбирает на улице маленькую девочку. Жена встречает находку нерадостно, но все же принимает ребенка. Скромное финансовое положение не мешает дружной семье жить счастливо, но вдруг по телевизору они видят объявление о пропавшей девочке, и с этого момента в их жизни начинаются серьезные проблемы.

Файл
Качество: WEB-DL 1080p
Видео: MPEG-4 AVC, 1920x1080, 5194 kbps, 24,000 fps
Звук: русский, AC3, 2.0 ch, 48 kHz, 192 kbps | iTunes
Субтитры: нет

Релиз:


[+] MI
Общее
Уникальный идентификатор                 : 249495653014004335928326952658504399443 (0xBBB31D6AF721C085BD5C17597E663A53)
Полное имя                               : E:TorrentManbikiKazokuWEBDL1080p.mkv
Формат                                   : Matroska
Версия формата                           : Version 4 / Version 2
Размер файла                             : 4,54 Гбайт
Продолжительность                        : 2 ч. 0 м.
Общий поток                              : 5388 Кбит/сек
Дата кодирования                         : UTC 2019-02-11 20:31:37
Программа кодирования                    : mkvmerge v9.5.0 ('Quiet Fire') 64bit
Библиотека кодирования                   : libebml v1.3.4 + libmatroska v1.4.5

Видео
Идентификатор                            : 1
Формат                                   : AVC
Формат/Информация                        : Advanced Video Codec
Профиль формата                          : High@L4
Настройки формата                        : CABAC / 4 Ref Frames
Параметр CABAC формата                   : Да
Параметр RefFrames формата               : 4 кадра
Идентификатор кодека                     : V_MPEG4/ISO/AVC
Продолжительность                        : 2 ч. 0 м.
Битрейт                                  : 5194 Кбит/сек
Ширина                                   : 1920 пикселей
Высота                                   : 1080 пикселей
Соотношение сторон                       : 16:9
Режим частоты кадров                     : Постоянный
Частота кадров                           : 24,000 кадра/сек
Цветовое пространство                    : YUV
Субдискретизация насыщенности            : 4:2:0
Битовая глубина                          : 8 бит
Тип развёртки                            : Прогрессивная
Бит/(Пиксели*Кадры)                      : 0.104
Размер потока                            : 4,37 Гбайт (96%)
Язык                                     : English
Default                                  : Да
Forced                                   : Нет
Цветовой диапазон                        : Limited
Основные цвета                           : BT.709
Характеристики трансфера                 : BT.709
Коэффициенты матрицы                     : BT.709

Аудио
Идентификатор                            : 2
Формат                                   : AC-3
Формат/Информация                        : Audio Coding 3
Идентификатор кодека                     : A_AC3
Продолжительность                        : 2 ч. 0 м.
Вид битрейта                             : Постоянный
Битрейт                                  : 192 Кбит/сек
Каналы                                   : 2 канала
Расположение каналов                     : Front: L R
Частота                                  : 48,0 КГц
Частота кадров                           : 31,250 кадров/сек (1536 SPF)
Битовая глубина                          : 16 бит
Метод сжатия                             : С потерями
Размер потока                            : 166 Мбайт (4%)
Язык                                     : Russian
Default                                  : Да
Forced                                   : Нет

Меню
00:00:00.000                             : en:Глава 1
00:04:45.083                             : en:Глава 2
00:10:00.666                             : en:Глава 3
00:16:50.541                             : en:Глава 4
00:24:23.832                             : en:Глава 5
00:29:48.623                             : en:Глава 6
00:38:34.581                             : en:Глава 7
00:43:41.747                             : en:Глава 8
00:51:16.038                             : en:Глава 9
01:00:45.246                             : en:Глава 10
01:11:37.287                             : en:Глава 11
01:15:55.495                             : en:Глава 12
01:21:25.661                             : en:Глава 13
01:26:39.869                             : en:Глава 14
01:31:05.327                             : en:Глава 15
01:38:43.285                             : en:Глава 16
01:45:23.576                             : en:Глава 17
01:53:39.326                             : en:Глава 18




Скриншоты:
[+] Всего файлов в раздаче - 1:
ManbikiKazokuWEBDL1080p.mkv4.54 GB

Похожие раздачи по запросу - магазинные:
2019-02-12 U Магазинные воришки / Manbiki kazoku (2018) WEB-DLRip | iTunes 1.45 GB ↑ 136 ↓ 37

Отзывы
caxaro4ek
так рейтинг накручен япошками

Зарегистрируйтесь чтобы добавить комментарий.
Обратная связь
Copyleft ©