↑↓Torrent.by
Поиск
Логин: Регистрация
Пароль: Восстановить пароль
Загрузка...

Магазинные воришки / Manbiki kazoku (2018) WEB-DLRip | iTunes

Скачать magazinnye-vorishki-manbiki-kazoku-2018-web-dlrip-itunes.torrent
U Магнитная ссылка Размер: 1.45 GB Раздают: 136 Качают: 37 Добавлен: 2019-02-12 06:52:11
Магазинные воришки / Manbiki kazoku (2018) WEB-DLRip | iTunes

Название: Магазинные воришки
Оригинальное название: Manbiki kazoku
Год выхода: 2018
Жанр: Драма, криминал
Страна: Япония
Перевод: Профессиональный (многоголосый, закадровый) | iTunes
Продолжительность: 02:00:32
Режиссер: Хирокадзу Корээда
В ролях: Рири Фрэнки, Сакура Андо, Маю Мацуока, Дзё Каири, Мию Сасаки, Кирин Кики, Сосукэ Икэмацу, Наото Огата, Ёко Моригути, Юки Ямада и др.

О фильме: Небольшая семья бедного японского рабочего живет практически только на пенсию бабушки, поэтому некоторые из родственников иногда подворовывают в магазинах. Однажды, возвращаясь домой после очередной кражи, глава семейства подбирает на улице маленькую девочку. Жена встречает находку нерадостно, но все же принимает ребенка. Скромное финансовое положение не мешает дружной семье жить счастливо, но вдруг по телевизору они видят объявление о пропавшей девочке, и с этого момента в их жизни начинаются серьезные проблемы.

Файл
Формат: AVI
Качество: WEB-DLRip
Видео: Xvid 73, 704x400, ~1524 kbps, 24,000 fps
Звук: русский, AC3, 2.0 ch, 48 kHz, 192 kbps | iTunes
Субтитры: нет

Релиз:


[+] MI
Общее
Полное имя                               : E:TorrentManbikiKazokuWEBDLRip.avi
Формат                                   : AVI
Формат/Информация                        : Audio Video Interleave
Профиль формата                          : OpenDML
Размер файла                             : 1,45 Гбайт
Продолжительность                        : 2 ч. 0 м.
Общий поток                              : 1728 Кбит/сек
Программа кодирования                    : XviD4PSP 6.0 / 54.27.101

Видео
Идентификатор                            : 0
Формат                                   : MPEG-4 Visual
Профиль формата                          : Advanced Simple@L5
Настройки формата                        : BVOP2 / Custom Matrix
Параметр BVOP формата                    : 2
Параметр QPel формата                    : Нет
Параметр GMC формата                     : Без точки перехода
Параметр матрицы формата                 : Выборочная
Идентификатор кодека                     : XVID
Идентификатор кодека/Подсказка           : XviD
Продолжительность                        : 2 ч. 0 м.
Битрейт                                  : 1524 Кбит/сек
Ширина                                   : 704 пикселя
Высота                                   : 400 пикселей
Соотношение сторон                       : 16:9
Частота кадров                           : 24,000 кадра/сек
Цветовое пространство                    : YUV
Субдискретизация насыщенности            : 4:2:0
Битовая глубина                          : 8 бит
Тип развёртки                            : Прогрессивная
Метод сжатия                             : С потерями
Бит/(Пиксели*Кадры)                      : 0.225
Размер потока                            : 1,28 Гбайт (88%)
Библиотека кодирования                   : XviD 73

Аудио
Идентификатор                            : 1
Формат                                   : AC-3
Формат/Информация                        : Audio Coding 3
Идентификатор кодека                     : 2000
Продолжительность                        : 2 ч. 0 м.
Вид битрейта                             : Постоянный
Битрейт                                  : 192 Кбит/сек
Каналы                                   : 2 канала
Расположение каналов                     : Front: L R
Частота                                  : 48,0 КГц
Частота кадров                           : 31,250 кадров/сек (1536 SPF)
Битовая глубина                          : 16 бит
Метод сжатия                             : С потерями
Размер потока                            : 166 Мбайт (11%)
Выравнивание                             : Соединение по промежуткам
Продолжительность промежутка             : 32  мс. (0,77 видеокадр)




Скриншоты:
[+] Всего файлов в раздаче - 1:
ManbikiKazokuWEBDLRip.avi1.45 GB

Похожие раздачи по запросу - магазинные:
2019-02-12 U Магазинные воришки / Manbiki kazoku (2018) WEB-DL 1080p | iTunes 1К4.54 GB ↑ 145 ↓ 67

Отзывы
Зарегистрируйтесь чтобы добавить комментарий.
Обратная связь
Copyleft ©