↑↓Torrent.by
Поиск
Логин: Регистрация
Пароль: Восстановить пароль
Загрузка...

Гадалка [01-02 из 16] (2018) HDTVRip от GeneralFilm

Скачать gadalka-01-02-iz-16-2018-hdtvrip-ot-generalfilm.torrent
U Магнитная ссылка Размер: 1.30 GB Раздают: 110 Качают: 23 Добавлен: 2019-02-12 06:52:17
Гадалка [01-02 из 16] (2018) HDTVRip от GeneralFilm

Год выпуска: 2018
Жанр:  Детектив, драма, мистика
Выпущено: Россия, Продюсерский Центр "Горад" "ВВП Альянс"
Режиссер: Илья Казанков
В ролях: Михаил Пореченков, Екатерина Олькина, Яна Крайнова, Юлия Ауг, Дмитрий Репин, Михаил Парыгин, Владимир Капустин, Василий Бочкарёв, Борис Щербаков, Анна Тараторкина, Николай Иванов (II), Александр Асташёнок, Сергей Губанов, Александр Левин (II), Константин Воробьёв, Лидия Мельникова, Лилия Лаврова, Евгений Рубаха, Виктория Рунцова, Анастасия Чуева, Игорь Ключников

О фильме: В центре сюжета — столичный майор Алексей Потапов и девушка из маленького провинциального городка Люся Некрасова — на первый взгляд, странный тандем, занимающийся расследованием сложных преступлений. Люся — необычная девушка: она видит людей, места, детали преступлений. Описав со стопроцентной точностью место убийства собственной сестры, Некрасова становится незаменимым сотрудником полиции, с чем категорически не согласен ее начальник — Потапов, привыкший верить только неопровержимым фактам, а не каким-то там видениям и предчувствиям. Но вскоре он вынужден признать: ненормальная «гадалка» все чаще оказывается права.

Качество: HDTVRip
Видео: XviD, ~ 1800 Кбит/с, 720x400
Аудио: Русский (AC3, 2 ch, 192 Кбит/с)
Продолжительность: 2 х ~ 00:48:00
Перевод: Не требуется
Субтитры: нет

Релиз:


[+] MediaInfo

Общее
Полное имя                               : D:Gadalka.HDTVRip.GeneralFilm1.Gadalka.HDTVRip.GeneralFilm.avi
Формат                                   : AVI
Формат/Информация                        : Audio Video Interleave
Размер файла                             : 649 Мбайт
Продолжительность                        : 46 м. 12 с.
Общий поток                              : 1964 Кбит/сек

Видео
Идентификатор                            : 0
Формат                                   : MPEG-4 Visual
Профиль формата                          : Advanced Simple@L5
Параметр BVOP формата                    : 1
Параметр QPel формата                    : Нет
Параметр GMC формата                     : Без точки перехода
Параметр матрицы формата                 : Выборочная
Идентификатор кодека                     : XVID
Идентификатор кодека/Подсказка           : XviD
Продолжительность                        : 46 м. 12 с.
Битрейт                                  : 1760 Кбит/сек
Ширина                                   : 720 пикселей
Высота                                   : 400 пикселей
Соотношение сторон                       : 16:9
Частота кадров                           : 25,000 кадров/сек
Цветовое пространство                    : YUV
Субдискретизация насыщенности            : 4:2:0
Битовая глубина                          : 8 бит
Тип развёртки                            : Прогрессивная
Метод сжатия                             : С потерями
Бит/(Пиксели*Кадры)                      : 0.244
Размер потока                            : 582 Мбайт (90%)
Библиотека кодирования                   : XviD 1.2.1 (UTC 2008-12-04)

Аудио
Идентификатор                            : 1
Формат                                   : AC-3
Формат/Информация                        : Audio Coding 3
Расширение режима                        : CM (complete main)
Параметр Endianness формата              : Big
Идентификатор кодека                     : 2000
Продолжительность                        : 46 м. 12 с.
Вид битрейта                             : Постоянный
Битрейт                                  : 192 Кбит/сек
Каналы                                   : 2 канала
Расположение каналов                     : Front: L R
Частота                                  : 48,0 КГц
Частота кадров                           : 31,250 кадров/сек (1536 spf)
Битовая глубина                          : 16 бит
Метод сжатия                             : С потерями
Размер потока                            : 63,5 Мбайт (10%)
Выравнивание                             : Соединение по промежуткам
Продолжительность промежутка             : 32  мс. (0,80 видеокадр)

Общее
Полное имя                               : D:Gadalka.HDTVRip.GeneralFilm2.Gadalka.HDTVRip.GeneralFilm.avi
Формат                                   : AVI
Формат/Информация                        : Audio Video Interleave
Размер файла                             : 684 Мбайт
Продолжительность                        : 48 м. 6 с.
Общий поток                              : 1988 Кбит/сек
Программа кодирования                    : VirtualDubMod 1.5.10.3 | www.virtualdub-fr.org || (build 2550/release)
Библиотека кодирования                   : VirtualDubMod build 2550/release

Видео
Идентификатор                            : 0
Формат                                   : MPEG-4 Visual
Профиль формата                          : Advanced Simple@L5
Параметр BVOP формата                    : 1
Параметр QPel формата                    : Нет
Параметр GMC формата                     : Без точки перехода
Параметр матрицы формата                 : Выборочная
Идентификатор кодека                     : XVID
Идентификатор кодека/Подсказка           : XviD
Продолжительность                        : 48 м. 6 с.
Битрейт                                  : 1787 Кбит/сек
Ширина                                   : 720 пикселей
Высота                                   : 400 пикселей
Соотношение сторон                       : 16:9
Частота кадров                           : 25,000 кадров/сек
Цветовое пространство                    : YUV
Субдискретизация насыщенности            : 4:2:0
Битовая глубина                          : 8 бит
Тип развёртки                            : Прогрессивная
Метод сжатия                             : С потерями
Бит/(Пиксели*Кадры)                      : 0.248
Размер потока                            : 615 Мбайт (90%)
Библиотека кодирования                   : XviD 1.2.1 (UTC 2008-12-04)

Аудио
Идентификатор                            : 1
Формат                                   : AC-3
Формат/Информация                        : Audio Coding 3
Расширение режима                        : CM (complete main)
Параметр Endianness формата              : Big
Идентификатор кодека                     : 2000
Продолжительность                        : 48 м. 6 с.
Вид битрейта                             : Постоянный
Битрейт                                  : 192 Кбит/сек
Каналы                                   : 2 канала
Расположение каналов                     : Front: L R
Частота                                  : 48,0 КГц
Частота кадров                           : 31,250 кадров/сек (1536 spf)
Битовая глубина                          : 16 бит
Метод сжатия                             : С потерями
Размер потока                            : 66,1 Мбайт (10%)
Выравнивание                             : Разделение по промежуткам
Продолжительность промежутка             : 40  мс. (1,00 видеокадр)
Время предзагрузки промежутка            : 500  мс.




Скриншоты:
[+] Всего файлов в раздаче - 2:
01.Gadalka.HDTVRip.GeneralFilm.avi649.12 MB
02.Gadalka.HDTVRip.GeneralFilm.avi684.24 MB

Показать еще раздачи по запросу гадалка:
Сегодня U Гадалка [01х01-09 из 16] (2019) SATRip-AVC 5.84 GB ↑ 0 ↓ 1
Сегодня U Гадалка [01-08 из 16] (2018) WEBRip от GeneralFilm 4.35 GB ↑ 36 ↓ 131
Сегодня U Гадалка [01-08 из 16] (2018) HDTV 1080i от GeneralFilm 18.49 GB ↑ 32 ↓ 27
Вчера U Гадалка [01-08 из 16] (2018) SATRip 4.69 GB ↑ 138 ↓ 300
2019-02-19 U Гадалка [01-07 из 16] (2018) SATRip 4.10 GB ↑ 104 ↓ 26
2019-02-19 U Гадалка [01-06 из 16] (2018) HDTVRip от GeneralFilm 4.05 GB ↑ 37 ↓ 63
2019-02-18 U Гадалка [01-06 из 16] (2018) HDTVRip-AVC от Files-x 4.48 GB ↑ 414 ↓ 248

Отзывы
Зарегистрируйтесь чтобы добавить комментарий.
Обратная связь
Copyleft ©