↑↓Torrent.by
Поиск
Логин: Регистрация
Пароль: Восстановить пароль
Загрузка...

За пределами пустоты / Beyond White Space (2018) WEB-DLRip-AVC от OlLanDGroup | HDRezka Studio

Скачать za-predelami-pustoty-beyond-white-space-2018-web-dlrip-avc-ot-ollandgroup-hdrezka-studio.torrent
U Магнитная ссылка Размер: 1.67 GB Раздают: 80 Качают: 63 Добавлен: 2019-02-12 06:52:50
За пределами пустоты / Beyond White Space (2018) WEB-DLRip-AVC от OlLanDGroup | HDRezka Studio

За пределами пустоты / Beyond White Space

Год выпуска: 2018
Страна: США, Венгрия
Производство: Spoke Lane Entertainment, Filmworks/FX, White Space Productions
Жанр:  Фантастика, триллер

Режиссёр: Кен Локсманди
В ролях: Холт МакКэллани, Сулай Энао, Дэйв Шеридан, Джим Девоти, Джоко Симс, Коди Китчен, Майк Дженовезе, Тиффани Броувер, Айзек С. Синглтон мл., Себастьян А. Джонс

Перевод: Профессиональный многоголосый | [HDRezka Studio]
Субтитры: Английские (SDH)
Реклама: Отсутствует

Описание: 2150 год. Космический корабль, команда которого промышляет охотой на существ, обитающих в космосе, получает очередное задание. За эту работу героям обещают заплатить неплохие деньги, но как бы ни старались космические охотники, поймать свою добычу им не удаётся. Их миссия проваливается, а сами они становятся жертвами одной очень опасной банды.

Качество: WEB-DLRip-AVC | AMZN Version |
Продолжительность: 01:33:18

Формат: MKV
Видео кодек: MPEG-4 AVC
Аудио кодек: AC3
Видео: 1024x434 (2.35:1), 23,976 fps, x264 ~1 924 kbps avg, 0.181 bit/pixel
Аудио #1: 48 kHz, AC3 Dolby Digital, 2 (L,R) ch, ~192.00 kbps avg | RUS (HDRezka Studio)
Аудио #2: 48 kHz, AC3 Dolby Digital, 3/2 (L,C,R,l,r) + LFE ch, ~448.00 kbps avg | ENG

Дата премьеры (мир): 14 декабря 2018
Дата премьеры (РФ):
Цифровой релиз:

Релиз:


[+] MediaInfo

Общее
Уникальный идентификатор                 : 116698029269054982040713771206534131693 (0x57CB39101B6C0D704D102E648FBE6FED)
Полное имя                               : F:OlLanDGroupBeyond.White.Space.2018.WEB-DLRip(AVC).OlLanDGroup.mkv
Формат                                   : Matroska
Версия формата                           : Version 4 / Version 2
Размер файла                             : 1,67 Гбайт
Продолжительность                        : 1 ч. 33 м.
Общий поток                              : 2562 Кбит/сек
Название фильма                          : Beyond.White.Space.2018   #TorpedoUK#
Дата кодирования                         : UTC 2019-02-12 01:44:31
Программа кодирования                    : mkvmerge v29.0.0 ('Like It Or Not') 64-bit
Библиотека кодирования                   : libebml v1.3.6 + libmatroska v1.4.9

Видео
Идентификатор                            : 1
Формат                                   : AVC
Формат/Информация                        : Advanced Video Codec
Профиль формата                          : High@L4.1
Параметр CABAC формата                   : Да
Параметр ReFrames формата                : 10 кадров
Идентификатор кодека                     : V_MPEG4/ISO/AVC
Продолжительность                        : 1 ч. 33 м.
Битрейт                                  : 1924 Кбит/сек
Ширина                                   : 1024 пикселя
Высота                                   : 434 пикселя
Соотношение сторон                       : 2,35:1
Режим частоты кадров                     : Постоянный
Частота кадров                           : 23,976 (24000/1001) кадра/сек
Цветовое пространство                    : YUV
Субдискретизация насыщенности            : 4:2:0
Битовая глубина                          : 8 бит
Тип развёртки                            : Прогрессивная
Бит/(Пиксели*Кадры)                      : 0.181
Размер потока                            : 1,25 Гбайт (75%)
Библиотека кодирования                   : x264 core 146 r2538 121396c
Настройки программы                      : cabac=1 / ref=10 / deblock=1:-2:-3 / analyse=0x3:0x113 / me=umh / subme=11 / psy=1 / psy_rd=0.95:0.07 / mixed_ref=1 / me_range=48 / chroma_me=1 / trellis=2 / 8x8dct=1 / cqm=0 / deadzone=21,11 / fast_pskip=1 / chroma_qp_offset=-3 / threads=6 / lookahead_threads=1 / sliced_threads=0 / nr=0 / decimate=1 / interlaced=0 / bluray_compat=0 / constrained_intra=0 / bframes=11 / b_pyramid=2 / b_adapt=2 / b_bias=0 / direct=3 / weightb=1 / open_gop=0 / weightp=2 / keyint=240 / keyint_min=23 / scenecut=40 / intra_refresh=0 / rc_lookahead=40 / rc=2pass / mbtree=0 / bitrate=1924 / ratetol=1.0 / qcomp=0.60 / qpmin=0 / qpmax=69 / qpstep=4 / cplxblur=20.0 / qblur=0.5 / vbv_maxrate=50000 / vbv_bufsize=62500 / nal_hrd=none / filler=0 / ip_ratio=1.40 / pb_ratio=1.30 / aq=1:1.00
Язык                                     : English
Default                                  : Да
Forced                                   : Нет

Аудио #1
Идентификатор                            : 2
Формат                                   : AC-3
Формат/Информация                        : Audio Coding 3
Расширение режима                        : CM (complete main)
Параметр Endianness формата              : Big
Идентификатор кодека                     : A_AC3
Продолжительность                        : 1 ч. 33 м.
Вид битрейта                             : Постоянный
Битрейт                                  : 192 Кбит/сек
Каналы                                   : 2 канала
Расположение каналов                     : Front: L R
Частота                                  : 48,0 КГц
Частота кадров                           : 31,250 кадров/сек (1536 spf)
Битовая глубина                          : 16 бит
Метод сжатия                             : С потерями
Размер потока                            : 128 Мбайт (7%)
Заголовок                                : MVO [HDRezka Studio]
Язык                                     : Russian
Default                                  : Да
Forced                                   : Нет

Аудио #2
Идентификатор                            : 3
Формат                                   : AC-3
Формат/Информация                        : Audio Coding 3
Расширение режима                        : CM (complete main)
Параметр Endianness формата              : Big
Идентификатор кодека                     : A_AC3
Продолжительность                        : 1 ч. 33 м.
Вид битрейта                             : Постоянный
Битрейт                                  : 448 Кбит/сек
Каналы                                   : 6 каналов
Расположение каналов                     : Front: L C R, Side: L R, LFE
Частота                                  : 48,0 КГц
Частота кадров                           : 31,250 кадров/сек (1536 spf)
Битовая глубина                          : 16 бит
Метод сжатия                             : С потерями
Размер потока                            : 299 Мбайт (17%)
Заголовок                                : [Original]
Язык                                     : English
Default                                  : Нет
Forced                                   : Нет

Текст
Идентификатор                            : 4
Формат                                   : UTF-8
Идентификатор кодека                     : S_TEXT/UTF8
Идентификатор кодека/Информация          : UTF-8 Plain Text
Продолжительность                        : 1 ч. 30 м.
Битрейт                                  : 57 бит/сек
Count of elements                        : 1573
Размер потока                            : 37,7 Кбайт (0%)
Заголовок                                : SDH
Язык                                     : English
Default                                  : Нет
Forced                                   : Нет



Скриншоты:
[+] Всего файлов в раздаче - 1:
Beyond.White.Space.2018.WEB-DLRip(AVC).OlLanDGroup.mkv1.67 GB

Похожие раздачи по запросу - пределами:
2019-02-12 U За пределами пустоты / Beyond White Space (2018) WEB-DLRip-AVC | HDRezka Studio 684.49 MB ↑ 81 ↓ 30
2019-02-12 U За пределами пустоты / Beyond White Space (2018) WEB-DL 1080p от OlLanDGroup | HDRezka Studio 4.48 GB ↑ 61 ↓ 64
2018-12-27 U За пределами пустоты / Beyond White Space (2018) WEBRip | L2 1К1.31 GB ↑ 138 ↓ 69
2018-12-27 U За пределами пустоты / Beyond White Space (2018) WEBRip 720p | L2 1К2.04 GB ↑ 193 ↓ 64
2018-01-10 U Битва за пределами звезд / Battle Beyond the Stars (1980) HDRip | Р1 1К1.55 GB ↑ 105 ↓ 34

Отзывы
Зарегистрируйтесь чтобы добавить комментарий.
Обратная связь
Copyleft ©