↑↓Torrent.by
Поиск
Логин: Регистрация
Пароль: Восстановить пароль
Загрузка...

Телекинез / Yeomryeok (2018) WEBRip 1080p | BaibaKo

Скачать telekinez-yeomryeok-2018-webrip-1080p-baibako.torrent
U Магнитная ссылка Размер: 3.59 GB Раздают: 69 Качают: 42 Добавлен: 2019-02-12 06:52:55
Телекинез / Yeomryeok (2018) WEBRip 1080p | BaibaKo

Название: Телекинез
Оригинальное название: Yeomryeok / Psychokinesis
Год выхода: 2018
Жанр: Комедия, фантастика, боевик
Режиссер: Ён Сан-хо
В ролях: Рю Сын-нён, Щим Ын-гён, Пак Чон-мин, Ким Мин-джэ, Чон Ю-ми, Ю Сын-мок, Ли Джон-ын, Ким Ён-сон, Е Су-джон, Тхэ Хан-хо

О фильме:
Во время утренней прогулки простой охранник Щин Сок-хён попил воды из горного ручья. Весь день у него болел живот, а вечером, заложив за воротник, мужчина обнаружил у себя необычные способности — теперь он может управлять предметами на расстоянии. Тем временем у его дочери Ру-ми, которую он оставил много лет назад, проблемы. Здание, где она держит ресторан, попало в зону реконструкции, и во время очередной стычки с рабочими погибает её мать. Узнав о смерти бывшей жены и ситуации дочери, Сок-хён решает помочь.

Страна: Корея Южная
Студия: Next Entertainment World, RedPeter Film
Продолжительность: 01:41:52
Перевод: Любительский многоголосый | BaibaKo

Файл
Кодек: AVC
Качество: WEBRip 1080p | Psychokinesis.2018.KOREAN.1080p.NF.WEBRip.DD5.1.x264-NTG
Видео: MPEG-4 AVC, 4020 Kбит/с, 1920x1080, 23.976 кадр/с
Аудио #1: Русский ( АС3, 6ch, 640 Кбит/с, 48.0 KHz) Любительский (многоголосый, закадровый) BaibaKo
Аудио #2: Корейский ( АС3, 6ch, 384 Кбит/с, 48.0 KHz)
Субтитры: английские, испанские, французские, немецкие, португальские и т.д


[+] MediaInfo

General
Unique ID                      : 228288986571208119529666794514477215254 (0xABBEDC0993A9D761ACAB34F2279BEE16)
Complete name                  : Psychokinesis.2018.1080p.NF.WEBRip.x264.Rus.Kor.BaibaKo.mkv
Format                         : Matroska
Format version                 : Version 4 / Version 2
File size                      : 3.59 GiB
Duration                       : 1 h 41 min
Overall bit rate mode          : Variable
Overall bit rate               : 5 045 kb/s
Encoded date                   : UTC 2019-02-10 10:13:22
Writing application            : mkvmerge v8.3.0 ('Over the Horizon') 32bit
Writing library                : libebml v1.3.1 + libmatroska v1.4.2
Attachments                    : poster.jpg

Video
ID                             : 1
Format                         : AVC
Format/Info                    : Advanced Video Codec
Format profile                 : Main@L4
Format settings, CABAC         : Yes
Format settings, RefFrames     : 3 frames
Codec ID                       : V_MPEG4/ISO/AVC
Duration                       : 1 h 41 min
Bit rate mode                  : Variable
Bit rate                       : 4 020 kb/s
Maximum bit rate               : 6 030 kb/s
Width                          : 1 920 pixels
Height                         : 1 080 pixels
Display aspect ratio           : 16:9
Frame rate mode                : Constant
Frame rate                     : 23.976 (24000/1001) FPS
Color space                    : YUV
Chroma subsampling             : 4:2:0
Bit depth                      : 8 bits
Scan type                      : Progressive
Bits/(Pixel*Frame)             : 0.081
Stream size                    : 2.86 GiB (80%)
Writing library                : x264 core 148 r2715 7e75228
Encoding settings              : cabac=1 / ref=3 / deblock=1:0:0 / analyse=0x1:0x111 / me=umh / subme=10 / psy=1 / psy_rd=1.00:0.00 / mixed_ref=1 / me_range=24 / chroma_me=1 / trellis=2 / 8x8dct=0 / cqm=0 / deadzone=21,11 / fast_pskip=1 / chroma_qp_offset=-2 / threads=8 / lookahead_threads=1 / sliced_threads=0 / nr=0 / decimate=1 / interlaced=0 / bluray_compat=0 / stitchable=1 / constrained_intra=0 / bframes=2 / b_pyramid=0 / b_adapt=2 / b_bias=0 / direct=3 / weightb=1 / open_gop=0 / weightp=2 / keyint=48 / keyint_min=25 / scenecut=0 / intra_refresh=0 / rc_lookahead=48 / rc=2pass / mbtree=1 / bitrate=4020 / ratetol=1.0 / qcomp=0.50 / qpmin=6 / qpmax=51 / qpstep=4 / cplxblur=20.0 / qblur=0.5 / vbv_maxrate=6030 / vbv_bufsize=8040 / nal_hrd=vbr / filler=0 / ip_ratio=1.40 / aq=1:1.00
Language                       : Korean
Default                        : Yes
Forced                         : No

Audio #1
ID                             : 2
Format                         : AC-3
Format/Info                    : Audio Coding 3
Format settings, Endianness    : Big
Codec ID                       : A_AC3
Duration                       : 1 h 41 min
Bit rate mode                  : Constant
Bit rate                       : 640 kb/s
Channel(s)                     : 6 channels
Channel positions              : Front: L C R, Side: L R, LFE
Sampling rate                  : 48.0 kHz
Frame rate                     : 31.250 FPS (1536 SPF)
Bit depth                      : 16 bits
Compression mode               : Lossy
Stream size                    : 466 MiB (13%)
Title                          : BaibaKo
Language                       : Russian
Service kind                   : Complete Main
Default                        : Yes
Forced                         : No

Audio #2
ID                             : 3
Format                         : AC-3
Format/Info                    : Audio Coding 3
Format settings, Endianness    : Big
Codec ID                       : A_AC3
Duration                       : 1 h 41 min
Bit rate mode                  : Constant
Bit rate                       : 384 kb/s
Channel(s)                     : 6 channels
Channel positions              : Front: L C R, Side: L R, LFE
Sampling rate                  : 48.0 kHz
Frame rate                     : 31.250 FPS (1536 SPF)
Bit depth                      : 16 bits
Compression mode               : Lossy
Stream size                    : 280 MiB (8%)
Title                          : Korean
Language                       : Korean
Service kind                   : Complete Main
Default                        : No
Forced                         : No

Text #1
ID                             : 4
Format                         : UTF-8
Codec ID                       : S_TEXT/UTF8
Codec ID/Info                  : UTF-8 Plain Text
Duration                       : 1 h 36 min
Bit rate                       : 61 b/s
Count of elements              : 1361
Stream size                    : 43.5 KiB (0%)
Language                       : English
Default                        : No
Forced                         : No

Text #2
ID                             : 5
Format                         : UTF-8
Codec ID                       : S_TEXT/UTF8
Codec ID/Info                  : UTF-8 Plain Text
Duration                       : 1 h 36 min
Bit rate                       : 107 b/s
Count of elements              : 1363
Stream size                    : 76.1 KiB (0%)
Language                       : Arabic
Default                        : No
Forced                         : No

Text #3
ID                             : 6
Format                         : UTF-8
Codec ID                       : S_TEXT/UTF8
Codec ID/Info                  : UTF-8 Plain Text
Duration                       : 1 h 36 min
Bit rate                       : 57 b/s
Count of elements              : 1362
Stream size                    : 40.9 KiB (0%)
Language                       : Danish
Default                        : No
Forced                         : No

Text #4
ID                             : 7
Format                         : UTF-8
Codec ID                       : S_TEXT/UTF8
Codec ID/Info                  : UTF-8 Plain Text
Duration                       : 1 h 36 min
Bit rate                       : 61 b/s
Count of elements              : 1366
Stream size                    : 43.5 KiB (0%)
Language                       : German
Default                        : No
Forced                         : No

Text #5
ID                             : 8
Format                         : UTF-8
Codec ID                       : S_TEXT/UTF8
Codec ID/Info                  : UTF-8 Plain Text
Duration                       : 1 h 36 min
Bit rate                       : 96 b/s
Count of elements              : 1369
Stream size                    : 68.8 KiB (0%)
Language                       : Greek
Default                        : No
Forced                         : No

Text #6
ID                             : 9
Format                         : UTF-8
Codec ID                       : S_TEXT/UTF8
Codec ID/Info                  : UTF-8 Plain Text
Duration                       : 1 h 36 min
Bit rate                       : 59 b/s
Count of elements              : 1369
Stream size                    : 42.4 KiB (0%)
Language                       : Spanish
Default                        : No
Forced                         : No

Text #7
ID                             : 10
Format                         : UTF-8
Codec ID                       : S_TEXT/UTF8
Codec ID/Info                  : UTF-8 Plain Text
Duration                       : 1 h 36 min
Bit rate                       : 59 b/s
Count of elements              : 1369
Stream size                    : 42.5 KiB (0%)
Title                          : European
Language                       : Spanish
Default                        : No
Forced                         : No

Text #8
ID                             : 11
Format                         : UTF-8
Codec ID                       : S_TEXT/UTF8
Codec ID/Info                  : UTF-8 Plain Text
Duration                       : 1 h 36 min
Bit rate                       : 59 b/s
Count of elements              : 1366
Stream size                    : 42.1 KiB (0%)
Language                       : Finnish
Default                        : No
Forced                         : No

Text #9
ID                             : 12
Format                         : UTF-8
Codec ID                       : S_TEXT/UTF8
Codec ID/Info                  : UTF-8 Plain Text
Duration                       : 1 h 36 min
Bit rate                       : 58 b/s
Count of elements              : 1363
Stream size                    : 41.2 KiB (0%)
Language                       : French
Default                        : No
Forced                         : No

Text #10
ID                             : 13
Format                         : UTF-8
Codec ID                       : S_TEXT/UTF8
Codec ID/Info                  : UTF-8 Plain Text
Duration                       : 1 h 36 min
Bit rate                       : 93 b/s
Count of elements              : 1367
Stream size                    : 66.2 KiB (0%)
Language                       : Hebrew
Default                        : No
Forced                         : No

Text #11
ID                             : 14
Format                         : UTF-8
Codec ID                       : S_TEXT/UTF8
Codec ID/Info                  : UTF-8 Plain Text
Duration                       : 1 h 36 min
Bit rate                       : 57 b/s
Count of elements              : 1365
Stream size                    : 41.0 KiB (0%)
Language                       : Italian
Default                        : No
Forced                         : No

Text #12
ID                             : 15
Format                         : UTF-8
Codec ID                       : S_TEXT/UTF8
Codec ID/Info                  : UTF-8 Plain Text
Duration                       : 1 h 36 min
Bit rate                       : 42 b/s
Count of elements              : 1361
Stream size                    : 30.0 KiB (0%)
Language                       : Japanese
Default                        : No
Forced                         : No

Text #13
ID                             : 16
Format                         : UTF-8
Codec ID                       : S_TEXT/UTF8
Codec ID/Info                  : UTF-8 Plain Text
Duration                       : 1 h 36 min
Bit rate                       : 54 b/s
Count of elements              : 1369
Stream size                    : 38.9 KiB (0%)
Language                       : Norwegian Bokmal
Default                        : No
Forced                         : No

Text #14
ID                             : 17
Format                         : UTF-8
Codec ID                       : S_TEXT/UTF8
Codec ID/Info                  : UTF-8 Plain Text
Duration                       : 1 h 36 min
Bit rate                       : 53 b/s
Count of elements              : 1364
Stream size                    : 37.9 KiB (0%)
Language                       : Dutch
Default                        : No
Forced                         : No

Text #15
ID                             : 18
Format                         : UTF-8
Codec ID                       : S_TEXT/UTF8
Codec ID/Info                  : UTF-8 Plain Text
Duration                       : 1 h 36 min
Bit rate                       : 52 b/s
Count of elements              : 1367
Stream size                    : 37.5 KiB (0%)
Language                       : Polish
Default                        : No
Forced                         : No

Text #16
ID                             : 19
Format                         : UTF-8
Codec ID                       : S_TEXT/UTF8
Codec ID/Info                  : UTF-8 Plain Text
Duration                       : 1 h 36 min
Bit rate                       : 57 b/s
Count of elements              : 1365
Stream size                    : 40.8 KiB (0%)
Language                       : Portuguese
Default                        : No
Forced                         : No

Text #17
ID                             : 20
Format                         : UTF-8
Codec ID                       : S_TEXT/UTF8
Codec ID/Info                  : UTF-8 Plain Text
Duration                       : 1 h 36 min
Bit rate                       : 58 b/s
Count of elements              : 1368
Stream size                    : 41.2 KiB (0%)
Title                          : Brazilian
Language                       : Portuguese
Default                        : No
Forced                         : No

Text #18
ID                             : 21
Format                         : UTF-8
Codec ID                       : S_TEXT/UTF8
Codec ID/Info                  : UTF-8 Plain Text
Duration                       : 1 h 36 min
Bit rate                       : 58 b/s
Count of elements              : 1371
Stream size                    : 41.5 KiB (0%)
Language                       : Romanian
Default                        : No
Forced                         : No

Text #19
ID                             : 22
Format                         : UTF-8
Codec ID                       : S_TEXT/UTF8
Codec ID/Info                  : UTF-8 Plain Text
Duration                       : 1 h 36 min
Bit rate                       : 59 b/s
Count of elements              : 1369
Stream size                    : 41.9 KiB (0%)
Language                       : Swedish
Default                        : No
Forced                         : No

Text #20
ID                             : 23
Format                         : UTF-8
Codec ID                       : S_TEXT/UTF8
Codec ID/Info                  : UTF-8 Plain Text
Duration                       : 1 h 36 min
Bit rate                       : 128 b/s
Count of elements              : 1361
Stream size                    : 91.5 KiB (0%)
Language                       : Thai
Default                        : No
Forced                         : No

Text #21
ID                             : 24
Format                         : UTF-8
Codec ID                       : S_TEXT/UTF8
Codec ID/Info                  : UTF-8 Plain Text
Duration                       : 1 h 36 min
Bit rate                       : 55 b/s
Count of elements              : 1368
Stream size                    : 39.5 KiB (0%)
Language                       : Turkish
Default                        : No
Forced                         : No

Text #22
ID                             : 25
Format                         : UTF-8
Codec ID                       : S_TEXT/UTF8
Codec ID/Info                  : UTF-8 Plain Text
Duration                       : 1 h 36 min
Bit rate                       : 75 b/s
Count of elements              : 1357
Stream size                    : 53.7 KiB (0%)
Language                       : Vietnamese
Default                        : No
Forced                         : No

Text #23
ID                             : 26
Format                         : UTF-8
Codec ID                       : S_TEXT/UTF8
Codec ID/Info                  : UTF-8 Plain Text
Duration                       : 1 h 36 min
Bit rate                       : 56 b/s
Count of elements              : 1368
Stream size                    : 40.1 KiB (0%)
Title                          : Simplified
Language                       : Chinese
Default                        : No
Forced                         : No

Text #24
ID                             : 27
Format                         : UTF-8
Codec ID                       : S_TEXT/UTF8
Codec ID/Info                  : UTF-8 Plain Text
Duration                       : 1 h 36 min
Bit rate                       : 57 b/s
Count of elements              : 1368
Stream size                    : 41.0 KiB (0%)
Title                          : Traditional
Language                       : Chinese
Default                        : No
Forced                         : No



Скриншоты:
[+] Всего файлов в раздаче - 1:
Psychokinesis.2018.1080p.NF.WEBRip.x264.Rus.Kor.BaibaKo.mkv3.59 GB

Показать еще раздачи по запросу телекинез:
2019-02-11 U Телекинез / Yeomryeok (2018) WEBRip 720p | BaibaKo 2.33 GB ↑ 279 ↓ 57
2016-01-17 U Телекинез / Carrie (2013) BDRip-AVC от MediaClub | D | Театральная версия / Theatrical Cut 1К2.26 GB ↑ 12 ↓ 1
2014-02-08 U Телекинез / Carrie (2013) HDRip от Scarabey | Лицензия | Расширенная версия 1.45 GB ↑ 401 ↓ 101
2014-02-05 U Телекинез / Carrie (2013) BDRip-AVC от HELLYWOOD | Theatrical | Лицензия 1К2.19 GB ↑ 114 ↓ 87
2014-02-04 U Телекинез / Carrie (2013) HDRip | Лицензия‎ 1.46 GB ↑ 237 ↓ 143
2014-01-28 U Телекинез / Carrie (2013) HDRip | iTunes‎ 1.46 GB ↑ 197 ↓ 77
2014-01-22 U Телекинез / Carrie (2013) BDRip от New-Team | D | Чистый звук 1.45 GB ↑ 218 ↓ 107

Отзывы
Зарегистрируйтесь чтобы добавить комментарий.
Обратная связь
Copyleft ©