↑↓Torrent.by
Поиск
Логин: Регистрация
Пароль: Восстановить пароль
Загрузка...

За пределами пустоты / Beyond White Space (2018) WEB-DL 1080p от OlLanDGroup | HDRezka Studio

Скачать za-predelami-pustoty-beyond-white-space-2018-web-dl-1080p-ot-ollandgroup-hdrezka-studio.torrent
U Магнитная ссылка Размер: 4.48 GB Раздают: 61 Качают: 64 Добавлен: 2019-02-12 06:54:51
За пределами пустоты / Beyond White Space (2018) WEB-DL 1080p от OlLanDGroup | HDRezka Studio

За пределами пустоты / Beyond White Space

Год выпуска: 2018
Страна: США, Венгрия
Производство: Spoke Lane Entertainment, Filmworks/FX, White Space Productions
Жанр:  Фантастика, триллер

Режиссёр: Кен Локсманди
В ролях: Холт МакКэллани, Сулай Энао, Дэйв Шеридан, Джим Девоти, Джоко Симс, Коди Китчен, Майк Дженовезе, Тиффани Броувер, Айзек С. Синглтон мл., Себастьян А. Джонс

Перевод: Профессиональный многоголосый | [HDRezka Studio]
Субтитры: Английские (SDH)
Реклама: Отсутствует

Описание: 2150 год. Космический корабль, команда которого промышляет охотой на существ, обитающих в космосе, получает очередное задание. За эту работу героям обещают заплатить неплохие деньги, но как бы ни старались космические охотники, поймать свою добычу им не удаётся. Их миссия проваливается, а сами они становятся жертвами одной очень опасной банды.

Качество: WEB-DL 1080p | AMZN Version |
Продолжительность: 01:33:18

Формат: MKV
Видео кодек: MPEG-4 AVC
Аудио кодек: AC3
Видео: 1920x816 (2.35:1), 23,976 fps, x264 ~6 044 kbps avg, 0.161 bit/pixel
Аудио #1: 48 kHz, AC3 Dolby Digital, 2 (L,R) ch, ~192.00 kbps avg | RUS (HDRezka Studio)
Аудио #2: 48 kHz, E-AC3 Dolby Digital Plus, 3/2 (L,C,R,l,r) + LFE ch, ~640.00 kbps avg | ENG

Дата премьеры (мир): 14 декабря 2018
Дата премьеры (РФ):
Цифровой релиз:

Релиз:


[+] MediaInfo

Общее
Уникальный идентификатор                 : 161279014168126106582211224153411627196 (0x79553551C1D2FB60DD9B044F51AD28BC)
Полное имя                               : F:OlLanDGroupBeyond.White.Space.2018.WEB-DL(1080p).OlLanDGroup.mkv
Формат                                   : Matroska
Версия формата                           : Version 4 / Version 2
Размер файла                             : 4,48 Гбайт
Продолжительность                        : 1 ч. 33 м.
Общий поток                              : 6878 Кбит/сек
Название фильма                          : Beyond.White.Space.2018   #TorpedoUK#
Дата кодирования                         : UTC 2019-02-12 01:41:58
Программа кодирования                    : mkvmerge v29.0.0 ('Like It Or Not') 64-bit
Библиотека кодирования                   : libebml v1.3.6 + libmatroska v1.4.9

Видео
Идентификатор                            : 1
Формат                                   : AVC
Формат/Информация                        : Advanced Video Codec
Профиль формата                          : High@L4
Параметр CABAC формата                   : Да
Параметр ReFrames формата                : 4 кадра
Идентификатор кодека                     : V_MPEG4/ISO/AVC
Продолжительность                        : 1 ч. 33 м.
Битрейт                                  : 6044 Кбит/сек
Ширина                                   : 1920 пикселей
Высота                                   : 816 пикселей
Соотношение сторон                       : 2,35:1
Режим частоты кадров                     : Постоянный
Частота кадров                           : 23,976 (24000/1001) кадра/сек
Цветовое пространство                    : YUV
Субдискретизация насыщенности            : 4:2:0
Битовая глубина                          : 8 бит
Тип развёртки                            : Прогрессивная
Бит/(Пиксели*Кадры)                      : 0.161
Размер потока                            : 3,94 Гбайт (88%)
Default                                  : Да
Forced                                   : Нет
Цветовой диапазон                        : Limited
Основные цвета                           : BT.709
Характеристики трансфера                 : BT.709
Коэффициенты матрицы                     : BT.709

Аудио #1
Идентификатор                            : 2
Формат                                   : AC-3
Формат/Информация                        : Audio Coding 3
Расширение режима                        : CM (complete main)
Параметр Endianness формата              : Big
Идентификатор кодека                     : A_AC3
Продолжительность                        : 1 ч. 33 м.
Вид битрейта                             : Постоянный
Битрейт                                  : 192 Кбит/сек
Каналы                                   : 2 канала
Расположение каналов                     : Front: L R
Частота                                  : 48,0 КГц
Частота кадров                           : 31,250 кадров/сек (1536 spf)
Битовая глубина                          : 16 бит
Метод сжатия                             : С потерями
Размер потока                            : 128 Мбайт (3%)
Заголовок                                : MVO [HDRezka Studio]
Язык                                     : Russian
Default                                  : Да
Forced                                   : Нет

Аудио #2
Идентификатор                            : 3
Формат                                   : E-AC-3
Формат/Информация                        : Enhanced Audio Coding 3
Параметр Endianness формата              : Big
Идентификатор кодека                     : A_EAC3
Продолжительность                        : 1 ч. 33 м.
Вид битрейта                             : Постоянный
Битрейт                                  : 640 Кбит/сек
Каналы                                   : 6 каналов
Расположение каналов                     : Front: L C R, Side: L R, LFE
Частота                                  : 48,0 КГц
Частота кадров                           : 187,500 кадров/сек (256 spf)
Метод сжатия                             : С потерями
Размер потока                            : 427 Мбайт (9%)
Заголовок                                : [Original]
Язык                                     : English
Default                                  : Нет
Forced                                   : Нет

Текст
Идентификатор                            : 4
Формат                                   : UTF-8
Идентификатор кодека                     : S_TEXT/UTF8
Идентификатор кодека/Информация          : UTF-8 Plain Text
Продолжительность                        : 1 ч. 30 м.
Битрейт                                  : 57 бит/сек
Count of elements                        : 1573
Размер потока                            : 37,7 Кбайт (0%)
Заголовок                                : SDH
Язык                                     : English
Default                                  : Нет
Forced                                   : Нет



Скриншоты:
[+] Всего файлов в раздаче - 1:
Beyond.White.Space.2018.WEB-DL(1080p).OlLanDGroup.mkv4.48 GB

Похожие раздачи по запросу - пределами:
2019-02-12 U За пределами пустоты / Beyond White Space (2018) WEB-DLRip-AVC | HDRezka Studio 684.49 MB ↑ 81 ↓ 30
2019-02-12 U За пределами пустоты / Beyond White Space (2018) WEB-DLRip-AVC от OlLanDGroup | HDRezka Studio 1.67 GB ↑ 80 ↓ 63
2018-12-27 U За пределами пустоты / Beyond White Space (2018) WEBRip | L2 1К1.31 GB ↑ 138 ↓ 69
2018-12-27 U За пределами пустоты / Beyond White Space (2018) WEBRip 720p | L2 1К2.04 GB ↑ 193 ↓ 64
2018-01-10 U Битва за пределами звезд / Battle Beyond the Stars (1980) HDRip | Р1 1К1.55 GB ↑ 105 ↓ 34

Отзывы
Зарегистрируйтесь чтобы добавить комментарий.
Обратная связь
Copyleft ©