↑↓Torrent.by
Поиск
Логин: Регистрация
Пароль: Восстановить пароль
Загрузка...

Оверлорд / Overlord (2018) BDRip 1080p | Sub

Скачать overlord-2018-bdrip-1080p-sub.torrent
U Магнитная ссылка Размер: 7.94 GB Раздают: 251 Качают: 85 Добавлен: 2019-02-12 06:58:27
Оверлорд / Overlord (2018) BDRip 1080p | Sub

Название: Оверлорд
Оригинальное название: Overlord
Год выхода: 2018
Жанр: Ужасы, фантастика, боевик, триллер, детектив, военный
Режиссер: Джулиус Эйвери
В ролях: Джован Адепо, Уайатт Расселл, Матильда Олливье, Йохан Филип Асбек, Джон Магаро, Иэн де Кестекер, Джейкоб Андерсон, Доминик Эпплуайт, Джанни Тофер, Джозеф Куинн, Боким Вудбайн, Эрих Редман, Марк Маккенна, Хейли Кармайкл, Марк Риссман, Мэг Фостер, Сара Финиган, Гюнтер Вюргер, Бен Тавассоли

О фильме:
Накануне высадки союзников в Нормандии отряд американских десантников получают задание на высадку для уничтожения немецкой радиовышки в захваченном нацистами посёлке. Операция должна пройти гладко, однако на месте они сталкиваются не только с вооружённой охраной сил неприятеля, но и с ордами кровожадных зомби - результатами секретных немецких разработок и опытов над людьми. Выжить в этом кошмаре будет действительно непросто...

Страна: США, Канада
Студия: Bad Robot, Paramount Pictures
Продолжительность: 01:49:47
Перевод: СУБТИТРЫ  (Переведено командой MenInSub)

Файл
Кодек: x.264
Качество: BDRip 1080p | Overlord.2018.1080p.BluRay.x264-FGT
Видео: MPEG-4 AVC, 9717 Kбит/с, 1920x800, 23.976 кадр/с
Звук: Аудио #1: Английский ( АС3, 6ch, 640 Кбит/с, 48.0 KHz)
Субтитры: Русские (MenInSub), английские


[+] MediaInfo
Источник: Overlord.2018.1080p.BluRay.x264-FGT
General
Unique ID                      : 210491153123829278651971491021777932148 (0x9E5B1F19822A3F5BA18E40BE699A0F74)
Complete name                  : Overlord.2018.BDRip.1080p.Rus.Sub.mkv
Format                         : Matroska
Format version                 : Version 4 / Version 2
File size                      : 7.94 GiB
Duration                       : 1 h 49 min
Overall bit rate               : 10.4 Mb/s
Encoded date                   : UTC 2019-02-11 10:55:21
Writing application            : mkvmerge v7.1.0 ('Good Love') 64bit built on Jul 27 2014 13:06:55
Writing library                : libebml v1.3.0 + libmatroska v1.4.1

Video
ID                             : 1
Format                         : AVC
Format/Info                    : Advanced Video Codec
Format profile                 : High@L4.1
Format settings, CABAC         : Yes
Format settings, RefFrames     : 5 frames
Codec ID                       : V_MPEG4/ISO/AVC
Duration                       : 1 h 49 min
Bit rate                       : 9 717 kb/s
Width                          : 1 920 pixels
Height                         : 800 pixels
Display aspect ratio           : 2.40:1
Frame rate mode                : Constant
Frame rate                     : 23.976 (24000/1001) FPS
Color space                    : YUV
Chroma subsampling             : 4:2:0
Bit depth                      : 8 bits
Scan type                      : Progressive
Bits/(Pixel*Frame)             : 0.264
Stream size                    : 7.45 GiB (94%)
Writing library                : x264 core 157 r2935 545de2f
Encoding settings              : cabac=1 / ref=5 / deblock=1:-3:-3 / analyse=0x3:0x113 / me=umh / subme=8 / psy=1 / psy_rd=1.00:0.00 / mixed_ref=1 / me_range=16 / chroma_me=1 / trellis=1 / 8x8dct=1 / cqm=0 / deadzone=21,11 / fast_pskip=1 / chroma_qp_offset=-2 / threads=24 / lookahead_threads=4 / sliced_threads=0 / nr=0 / decimate=1 / interlaced=0 / bluray_compat=0 / constrained_intra=0 / bframes=3 / b_pyramid=2 / b_adapt=1 / b_bias=0 / direct=3 / weightb=1 / open_gop=0 / weightp=2 / keyint=250 / keyint_min=23 / scenecut=40 / intra_refresh=0 / rc_lookahead=50 / rc=2pass / mbtree=1 / bitrate=9717 / ratetol=1.0 / qcomp=0.60 / qpmin=0 / qpmax=69 / qpstep=4 / cplxblur=20.0 / qblur=0.5 / ip_ratio=1.40 / aq=1:1.00
Language                       : English
Default                        : Yes
Forced                         : No

Audio
ID                             : 2
Format                         : AC-3
Format/Info                    : Audio Coding 3
Format settings, Endianness    : Big
Codec ID                       : A_AC3
Duration                       : 1 h 49 min
Bit rate mode                  : Constant
Bit rate                       : 640 kb/s
Channel(s)                     : 6 channels
Channel positions              : Front: L C R, Side: L R, LFE
Sampling rate                  : 48.0 kHz
Frame rate                     : 31.250 FPS (1536 SPF)
Bit depth                      : 16 bits
Compression mode               : Lossy
Stream size                    : 503 MiB (6%)
Language                       : English
Service kind                   : Complete Main
Default                        : Yes
Forced                         : No

Text #1
ID                             : 3
Format                         : UTF-8
Codec ID                       : S_TEXT/UTF8
Codec ID/Info                  : UTF-8 Plain Text
Duration                       : 1 h 42 min
Bit rate                       : 59 b/s
Count of elements              : 1017
Stream size                    : 45.0 KiB (0%)
Title                          : MenInSub
Language                       : Russian
Default                        : Yes
Forced                         : Yes

Text #2
ID                             : 4
Format                         : UTF-8
Codec ID                       : S_TEXT/UTF8
Codec ID/Info                  : UTF-8 Plain Text
Duration                       : 1 h 4 min
Bit rate                       : 4 b/s
Count of elements              : 91
Stream size                    : 1.99 KiB (0%)
Title                          : Forced
Language                       : English
Default                        : No
Forced                         : No

Text #3
ID                             : 5
Format                         : UTF-8
Codec ID                       : S_TEXT/UTF8
Codec ID/Info                  : UTF-8 Plain Text
Duration                       : 1 h 42 min
Bit rate                       : 36 b/s
Count of elements              : 1034
Stream size                    : 27.6 KiB (0%)
Title                          : Full
Language                       : English
Default                        : No
Forced                         : No

Text #4
ID                             : 6
Format                         : UTF-8
Codec ID                       : S_TEXT/UTF8
Codec ID/Info                  : UTF-8 Plain Text
Duration                       : 1 h 42 min
Bit rate                       : 49 b/s
Count of elements              : 1447
Stream size                    : 37.0 KiB (0%)
Title                          : SDH
Language                       : English
Default                        : No
Forced                         : No

Menu
00:00:00.000                   : en:Chapter 01
00:06:31.099                   : en:Chapter 02
00:13:47.493                   : en:Chapter 03
00:20:31.313                   : en:Chapter 04
00:26:27.795                   : en:Chapter 05
00:34:08.964                   : en:Chapter 06
00:41:10.593                   : en:Chapter 07
00:48:41.377                   : en:Chapter 08
00:55:50.889                   : en:Chapter 09
01:03:21.464                   : en:Chapter 10
01:10:28.599                   : en:Chapter 11
01:17:21.887                   : en:Chapter 12
01:25:47.601                   : en:Chapter 13
01:32:19.159                   : en:Chapter 14
01:38:48.464                   : en:Chapter 15
01:42:39.195                   : en:Chapter 16



Скриншоты:
[+] Всего файлов в раздаче - 1:
Overlord.2018.BDRip.1080p.Rus.Sub.mkv7.94 GB

Показать еще раздачи по запросу оверлорд:
2019-02-18 U Оверлорд / Overlord (2018) BDRip от HQ-ViDEO | Лицензия 2.18 GB ↑ 40 ↓ 10
2019-02-17 U Оверлорд / Overlord (2018) BDRip-HEVC 1080p от D҉O҉N҉A҉T҉҉1K҉ | Лицензия 5.50 GB ↑ 125 ↓ 66
2019-02-17 U Оверлорд / Overlord (2018) BDRip 720p от HELLYWOOD | Лицензия 4.37 GB ↑ 113 ↓ 70
2019-02-16 U Оверлорд / Overlord (2018) BDRip 1080p от qqss44 & MegaPeer | Лицензия 7.74 GB ↑ 619 ↓ 359
2019-02-16 U Оверлорд / Overlord (2018) BDRip-AVC от HELLYWOOD | Лицензия 2.18 GB ↑ 136 ↓ 56
2019-02-15 U Оверлорд / Overlord (2018) BDRip от MegaPeer | Лицензия 1.46 GB ↑ 125 ↓ 63
2019-02-15 U Оверлорд / Overlord (2018) BDRip от ExKinoRay | Лицензия 1.46 GB ↑ 35 ↓ 17

Отзывы
Зарегистрируйтесь чтобы добавить комментарий.
Обратная связь
Copyleft ©