↑↓Torrent.by
Поиск
Логин: Регистрация
Пароль: Восстановить пароль
Загрузка...

Захват [01 из 08] (2019) WEB-DLRip от Files-x

Скачать zahvat-01-iz-08-2019-web-dlrip-ot-files-x.torrent
U Магнитная ссылка Размер: 552.93 MB Раздают: 145 Качают: 22 Добавлен: 2019-02-12 12:45:12
Захват [01 из 08] (2019) WEB-DLRip от Files-x

Оригинальное название: Захват
Год выхода: 2019
Жанр: Боевик, детектив, криминал
Режиссер: Хачатур Василян, Роман Веркулич
В ролях: Станислав Боклан, Георгий Поволоцкий, Никита Вакулюк, Слава Красовская, Альберт Малик, Александр Божко (II), Вадим Павленко, Владимир Скорик, Ирина Веренич-Островская

О фильме:
"Захват" – это истории о людях, которые каждый день рискуют собственной жизнью. Главные герои – отряд быстрого реагирования полицейского спецназа – занимаются обезвреживанием особо опасных преступников. Они любят свою профессию и выполняют работу быстро и эффективно. Для них закон превыше всего. Учленов команды есть свои жизненные драмы и личные трагедии. Они чувствуют чужую боль, как свою, и честно исполняют свой долг, защищая простых людей от преступников.

Страна: Украина
Студия: 07 продакшн, по заказу телеканала Интер
Продолжительность: 1 х 00:40:16
Перевод: Не требуется

Файл
Кодек: XviD
Качество: WEBRip
Видео: XviD, ~ 1719 Кбит/с, 720x400, 25 кадр/с
Звук: AC3, 2 ch, 192 Кбит/с

Релиз:
[+] Содержание

1 серия "Фабрика смерти"
2 серия ""
3 серия ""
4 серия ""
5 серия ""
6 серия ""
7 серия ""
8 серия ""



[+] MediaInfo
General
Complete name                    : C:01.Захват.(2019).WEB-DLRip.by.Nicodem.Files-x.avi
Format                           : AVI
Format/Info                      : Audio Video Interleave
File size                        : 553 MiB
Duration                         : 40mn 15s
Overall bit rate                 : 1 920 Kbps
Writing application              : VirtualDubMod 1.5.10.3 | www.virtualdub-fr.org || (build 2550/release)
Writing library                  : VirtualDubMod build 2550/release

Video
ID                               : 0
Format                           : MPEG-4 Visual
Format profile                   : Advanced Simple@L5
Format settings, BVOP            : 1
Format settings, QPel            : No
Format settings, GMC             : No warppoints
Format settings, Matrix          : Custom
Codec ID                         : XVID
Codec ID/Hint                    : XviD
Duration                         : 40mn 15s
Bit rate                         : 1 719 Kbps
Width                            : 720 pixels
Height                           : 400 pixels
Display aspect ratio             : 16:9
Frame rate                       : 25.000 fps
Color space                      : YUV
Chroma subsampling               : 4:2:0
Bit depth                        : 8 bits
Scan type                        : Progressive
Compression mode                 : Lossy
Bits/(Pixel*Frame)               : 0.239
Stream size                      : 495 MiB (89%)
Writing library                  : XviD 73

Audio
ID                               : 1
Format                           : AC-3
Format/Info                      : Audio Coding 3
Mode extension                   : CM (complete main)
Codec ID                         : 2000
Duration                         : 40mn 15s
Bit rate mode                    : Constant
Bit rate                         : 192 Kbps
Channel(s)                       : 2 channels
Channel positions                : Front: L R
Sampling rate                    : 48.0 KHz
Bit depth                        : 16 bits
Compression mode                 : Lossy
Stream size                      : 55.3 MiB (10%)
Alignment                        : Split accross interleaves
Interleave, duration             : 40 ms (1.00 video frame)
Interleave, preload duration     : 500 ms



[+] ИНТЕРЕСНО

Каждая серия рассказывает об отдельной спецоперации. Причем в основе сценария лежат реальные преступления и истории нейтрализации преступников. "Многие из этих историй были на слуху, – говорит шеф-редактор сериала Олег Гершкович. – Зрители могли недавно читать о них в сводках МВД, газетах или Интернете. Но что там произошло на самом деле, чем все закончилось, как обезвредили преступников, они смогут узнать из нашего сериала. Конечно, в "Захвате" не обошлось без художественного вымысла, но в основе каждой истории – реальные события".

1. Сериал помогали создавать бывшие и действующие сотрудники правоохранительных органов. "Понять специфику работы спецназа непросто. В среде этих людей существуют правила, о которых непосвященный человек даже не подозревает. Поэтому и на уровне написания сценария, и на съемочной площадке была необходима помощь специалистов", – рассказал шеф-редактор сериала Олег Гершкович.

2. Народный артист Украины Станислав Боклан, сыгравший командира отряда – майора Матяша по прозвищу Батя, во время съемок сам оказался в экстремальных условиях. Работал день и ночь без выходных: параллельно с "Захватом" у него проходили съемки еще в четырех проектах, и это не считая основной работы в театре! Даже свое 59-летие Станислав Владимирович отметил на съемочной площадке сериала. "Мне хотелось на старости лет поиграть в такую войнушку, – объясняет он. – Я далеко не военный человек. А тут такая мужская история. Этот сериал не о "пиф-паф", он о людях, у которых действительно опасная работа, и о проявлении простых человеческих качеств в экстремальных условиях".

3. Ради роли некоторым актерам пришлось получить новые навыки. Никита Вакулюк, сыгравший капитана отряда Макса Зиву по прозвищу Хмурый, впервые в жизни стрелял из автомата Калашникова и прошел начальную подготовку бойцов спецподразделения. А еще в "Захвате" он смог реализовать давнюю мечту – выйти на боксерский ринг. Технику удара Вакулюк отрабатывал вместе с режиссером сериала – Хачатуром Василяном, который 12 лет занимался боксом.

А вот актеру Владимиру Скорику, сыгравшему хакера Шурика, пришлось учиться ездить в инвалидном кресле. По сценарию его герой при исполнении задания получил тяжелое ранение в позвоночник. Несмотря на последствия, он остался в отряде.

4. Дольше всего создатели сериала искали исполнительницу роли единственной девушки в отряде – снайпера Виктории Захаровой с позывным Астра. Спустя три месяца поисков остановили выбор на Славе Красовской. Характер героини оказался близок актрисе. "У нас обеих крепкий внутренний стержень. Меня, как и мою Вику, не так просто сломать, я всегда стараюсь разочарования и поражения расценивать как опыт", – комментирует Слава Красовская.

5. Сцены перестрелок, штурмов, захватов, рукопашного боя были запланированы на каждый съемочный день. За правдоподобие ранений отвечала художник по гриму Яна Ляшенко. По её словам, в среднем за один съемочный день приходилось использовать около двух литров бутафорской "крови".



Скриншоты:
[+] Всего файлов в раздаче - 1:
01.Захват.(2019).WEB-DLRip.by.Nicodem.Files-x.avi552.93 MB

Показать еще раздачи по запросу захват:
2019-02-15 U Захват [01-04 из 08] (2019) WEB-DLRip-AVC от Files-x 1К2.09 GB ↑ 25 ↓ 52
2019-02-14 U Захват [01-03 из 08] (2019) WEB-DLRip от Files-x 1.63 GB ↑ 13 ↓ 149
2019-02-14 U Захват [01-03 из 08] (2019) WEB-DLRip-AVC от Files-x 1.54 GB ↑ 41 ↓ 60
2019-02-13 U Захват [01-02 из 08] (2019) WEB-DLRip-AVC от Files-x 1.02 GB ↑ 38 ↓ 48
2019-02-12 U Захват [01 из 08] (2019) WEB-DLRip-AVC от Files-x 516.10 MB ↑ 79 ↓ 13
2017-11-13 U Захват [01-08 из 08] (2014) WEBRip-AVC от Files-x 1К5.06 GB ↑ 72 ↓ 86
2017-08-05 U Оатс: Часть 1 - Захват: Гарпун / Oats: Volume 1 - Kapture: Fluke (2017) WEBRip 1080p от BadBajo | L1 149.68 MB ↑ 56 ↓ 19

Отзывы
Зарегистрируйтесь чтобы добавить комментарий.
Обратная связь
Copyleft ©