↑↓Torrent.by
Поиск
Логин: Регистрация
Пароль: Восстановить пароль
Загрузка...

Фаворитка / The Favourite (2018) WEB-DL 1080p | HDRezka Studio

Скачать favoritka-the-favourite-2018-web-dl-1080p-hdrezka-studio.torrent
U Магнитная ссылка Размер: 4.85 GB Раздают: 216 Качают: 195 Добавлен: 2019-02-12 15:19:23
Фаворитка / The Favourite (2018) WEB-DL  1080p | HDRezka Studio

Название: Фаворитка
Оригинальное название: The Favourite
Год выхода: 2018
Жанр: драма, комедия, биография, история
Режиссер: Йоргос Лантимос
В ролях: Оливия Колман, Рэйчел Вайс, Эмма Стоун, Джо Элвин, Николас Холт, Эмма Делвс, Фэй Дейвней, Пол Суэйн, Дженнифер Уайт, Лилироуз Стивенс

О фильме:
Начало XVIII века. Идет война Англии с Францией. Тем не менее, жизнь в королевстве продолжается. Трон занимает болезненная королева Анна, а руководство страной берет на себя ее близкая подруга леди Сара. Когда при дворе появляется новая служанка Эбигейл, Сара попадает под ее очарование и берет девушку под свое крыло. Для Эбигейл это — шанс вернуться к своим аристократическим корням. Как только Сара устает решать вопросы войны и мира, Эбигейл становится лучшим помощником королевы в этих делах. Крепнущая дружба с Анной дает новой фаворитке возможность реализовать свои амбиции. И лучше не вставать у нее на пути!

Страна: Ирландия, Великобритания, США
Студия: Element Pictures, Film4, Scarlet Films, Waypoint Entertainment
Продолжительность: 01:59:29
Перевод: профессиональный многоголосый, закадровый [HDRezka Studio]

Файл
Кодек: H.264
Качество: WEB-DL 1080p
Видео: AVC, 1920x1038 (1.850), 23.976 fps ~ 5125 Kbps
Звук:
AC3, 48 Khz, 2 ch ~ 192 Kb/s (русский)
AC3, 48 KHz, 6 ch ~ 384 Kb/s (английский)
Субтитры: английские


[+] MI:

Общее
Уникальный идентификатор : 214515565660584378981681052162524003394 (0xA16231F4F9E16A56A6EA978B2F353C42)
Полное имя : Q:TorFThe.Favourite.2018.1080p.WEB-DL.DD5.1.H264-FGT.mkv
Формат : Matroska
Версия формата : Version 2
Размер файла : 4,85 Гбайт
Продолжительность : 1 ч. 59 м.
Общий поток : 5817 Кбит/сек
Название фильма : The.Favourite.2018.1080p.WEB-DL-FGT
Дата кодирования : UTC 2019-02-12 08:50:00
Программа кодирования : mkvmerge v5.4.0 ('Piper') built on Mar 10 2012 13:34:39
Библиотека кодирования : libebml v1.2.3 + libmatroska v1.3.0
DURATION : 01:59:29.152000000
NUMBER_OF_FRAMES : 224036
NUMBER_OF_BYTES : 344119296
_STATISTICS_WRITING_APP : mkvmerge v30.1.0 ('Forever And More') 64-bit
_STATISTICS_WRITING_DATE_UTC : 2019-02-12 06:02:00
_STATISTICS_TAGS : BPS DURATION NUMBER_OF_FRAMES NUMBER_OF_BYTES
Attachment : Yes / Yes / Yes / Yes

Видео
Идентификатор : 1
Формат : AVC
Формат/Информация : Advanced Video Codec
Профиль формата : High@L4.0
Параметр CABAC формата : Да
Параметр ReFrames формата : 4 кадра
Идентификатор кодека : V_MPEG4/ISO/AVC
Продолжительность : 1 ч. 59 м.
Битрейт : 5125 Кбит/сек
Ширина : 1920 пикселей
Высота : 1038 пикселей
Соотношение сторон : 1,850
Частота кадров : 23,976 кадра/сек
Цветовое пространство : YUV
Субдискретизация насыщенности : 4:2:0
Битовая глубина : 8 бит
Тип развёртки : Прогрессивная
Бит/(Пиксели*Кадры) : 0.107
Размер потока : 4,28 Гбайт (88%)
Заголовок : The Favourite
Язык : English
Default : Да
Forced : Нет
Основные цвета : BT.709-5, BT.1361, IEC 61966-2-4, SMPTE RP177
Характеристики трансфера : BT.709-5, BT.1361
Коэффициенты матрицы : BT.709-5, BT.1361, IEC 61966-2-4 709, SMPTE RP177

Аудио #1
Идентификатор : 2
Формат : AC-3
Формат/Информация : Audio Coding 3
Расширение режима : CM (complete main)
Идентификатор кодека : A_AC3
Продолжительность : 1 ч. 59 м.
Вид битрейта : Постоянный
Битрейт : 192 Кбит/сек
Каналы : 2 канала
Расположение каналов : Front: L R
Частота : 48,0 КГц
Битовая глубина : 16 бит
Метод сжатия : С потерями
Задержка видео : 1 с. 258 мс.
Размер потока : 164 Мбайт (3%)
Заголовок : HDRezka Studio
Язык : Russian
Default : Да
Forced : Нет

Аудио #2
Идентификатор : 3
Формат : AC-3
Формат/Информация : Audio Coding 3
Расширение режима : CM (complete main)
Идентификатор кодека : A_AC3
Продолжительность : 1 ч. 59 м.
Вид битрейта : Постоянный
Битрейт : 384 Кбит/сек
Каналы : 6 каналов
Расположение каналов : Front: L C R, Side: L R, LFE
Частота : 48,0 КГц
Битовая глубина : 16 бит
Метод сжатия : С потерями
Задержка видео : -42 мс.
Размер потока : 328 Мбайт (7%)
Заголовок : 5.1
Язык : English
Default : Нет
Forced : Нет

Текст
Идентификатор : 4
Формат : UTF-8
Идентификатор кодека : S_TEXT/UTF8
Идентификатор кодека/Информация : UTF-8 Plain Text
Заголовок : explosiveskull
Язык : English
Default : Нет
Forced : Нет

Меню
00:00:00.000 : en:Chapter 01
00:18:37.492 : en:Chapter 02
00:40:36.477 : en:Chapter 03
00:46:45.386 : en:Chapter 04
01:06:24.189 : en:Chapter 05
01:15:13.217 : en:Chapter 06
01:28:33.683 : en:Chapter 07
01:36:56.769 : en:Chapter 08



Скриншоты:
[+] Всего файлов в раздаче - 1:
The.Favourite.2018.1080p.WEB-DL.DD5.1.H264-FGT.mkv4.85 GB

Похожие раздачи по запросу - фаворитка:
Вчера U Фаворитка / The Favourite (2018) WEB-DLRip-AVC от OlLanDGroup | HDRezka Studio 2.14 GB ↑ 86 ↓ 28
2019-02-14 U Фаворитка / The Favourite (2018) WEB-DLRip | HDRezka Studio 1.45 GB ↑ 140 ↓ 59
2019-02-13 U Фаворитка / The Favourite (2018) WEB-DLRip-AVC | HDRezka Studio 716.15 MB ↑ 38 ↓ 17
2019-02-13 U Фаворитка / The Favourite (2018) WEB-DLRip | HDRezka Studio 1.45 GB ↑ 112 ↓ 31
2019-02-09 U Фаворитка / The Favourite (2018) DVDScr | HDRezka Studio 1.47 GB ↑ 217 ↓ 74
2019-01-21 U Фаворитка / The Favourite (2018) DVDRip | L2 1.63 GB ↑ 588 ↓ 175

Отзывы
Зарегистрируйтесь чтобы добавить комментарий.
Обратная связь
Copyleft ©