↑↓Torrent.by
Поиск
Логин: Регистрация
Пароль: Восстановить пароль
Загрузка...

Фронт [01-06 из 08] (2014) WEBRip от GeneralFilm

Скачать front-01-06-iz-08-2014-webrip-ot-generalfilm.torrent
U Магнитная ссылка Размер: 3.26 GB Раздают: 170 Качают: 514 Добавлен: 2019-02-12 15:19:26
Фронт [01-06  из 08] (2014) WEBRip от GeneralFilm

Год выпуска: 2014
Жанр:  Драма, исторический фильм
Выпущено: Россия, «Epic Media»
Режиссер: Владимир Балкашинов
В ролях: Магдалена Гурская, Павел Южаков-Харланчук, Митя Лабуш, Ольга Кузьмина, Игорь Черневич, Юлия Марченко, Андрей Полищук, Юрий Ицков, Алексей Байдаков, Роман Агеев, Вадим Сквирский, Валерий Кухарешин, Яков Шамшин, Елизавета Нилова, Сергей Соболев, Родион Приходько, Артур Харитоненко, Сергей Калантай, Уршула Малка, Игорь Головин, Сергей Мучеников, Владимир Щербаков, Ирина Горячева, Сергей Кудрявцев, Борис Драгилёв, Алиса Миронова, Александр Солдатов (III), Антон Багров, Аркадий Волгин, Дмитрий Поднозов, Сергей Уманов, Михаил Сидаш, Егор Бакулин, Павел Харизанов, Марчин Руй, Александр Строев (III), Андрей Перович, Вячеслав Коробицин, Евгений Капитонов, Валерий Малюшин, Владимир Маслаков, Артем Бордовский, Сергей Дьячков, Михаил Касапов, Олег Жилин, Алексей Утеганов, Андрей Аверков, Игорь Лепихин, Дмитрий Гирев, Антон Пулит, Валерий Смекалов, Владимир Захарьев, Сергей Малюгов, Егор Садовский, Алексей Одинг, Александр Бахаревский, Сергей Колос, Сергей Евсеев, Роман Грибков, Павел Григорьев, Кирилл Фролов, Крейг Эштон, Дмитрий Шайгарданов, Алесь Снопковский, Дмитрий Петрушков, Николай Данилов, Владимир Чернышов, Денис Пьянов, Артём Лещик, Роман Павлушев

О фильме: Вторая мировая война. Советское руководство узнает, что немецкий концерн «Ауэрге» ведет разработку атомного оружия. В «Ауэрге» работает ученый-физик Катерина Штур - полька, побывавшая в немецком концлагере. Она пока не осознает всей опасности своих научных изысканий, панически боится гестапо и мечтает сбежать туда, где ей ничто не будет угрожать. Ее мечту может исполнить Влад Вольный, завербованный советскими спецслужбами и получивший задание похитить сотрудника концерна «Ауэрге» и доставить его в Москву...

Качество: WEBRip
Видео: XviD build 73, 720x400 (16:9), 25.000 fps, ~ 1400 Kbps (~ 0.190 bit/pixel)
Аудио: 48.0 kHz, AC3, 2/0 ch, 192 kbps
Продолжительность: 6 х ~ 00:50:00
Перевод: Не требуется
Cубтитры: нет

Релиз:


[+] MediaInfo

General
Complete name               : D:RazdachiFront.2014.WEBRip.GeneralFilmFront.e04.avi
Format                      : AVI
Format/Info                 : Audio Video Interleave
File size                   : 557 MiB
Duration                    : 47 min 58 s
Overall bit rate            : 1 624 kb/s
Writing application         : VirtualDubMod 1.5.10.3 | www.virtualdub-fr.org || (build 2550/release)
Writing library             : VirtualDubMod build 2550/release

Video
ID                          : 0
Format                      : MPEG-4 Visual
Format profile              : Advanced Simple@L5
Format settings             : BVOP1 / Custom Matrix
Format settings, BVOP       : 1
Format settings, QPel       : No
Format settings, GMC        : No warppoints
Format settings, Matrix     : Custom
Codec ID                    : XVID
Codec ID/Hint               : XviD
Duration                    : 47 min 58 s
Bit rate                    : 1 422 kb/s
Width                       : 720 pixels
Height                      : 400 pixels
Display aspect ratio        : 16:9
Frame rate                  : 25.000 FPS
Color space                 : YUV
Chroma subsampling          : 4:2:0
Bit depth                   : 8 bits
Scan type                   : Progressive
Compression mode            : Lossy
Bits/(Pixel*Frame)          : 0.197
Stream size                 : 488 MiB (88%)
Writing library             : XviD 73

Audio
ID                          : 1
Format                      : AC-3
Format/Info                 : Audio Coding 3
Commercial name             : Dolby Digital
Codec ID                    : 2000
Duration                    : 47 min 58 s
Bit rate mode               : Constant
Bit rate                    : 192 kb/s
Channel(s)                  : 2 channels
Channel layout              : L R
Sampling rate               : 48.0 kHz
Frame rate                  : 31.250 FPS (1536 SPF)
Bit depth                   : 16 bits
Compression mode            : Lossy
Stream size                 : 65.9 MiB (12%)
Alignment                   : Split accross interleaves
Interleave, duration        : 40  ms (1.00 video frame)
Interleave, preload duratio : 500  ms
Service kind                : Complete Main



Скриншоты:
[+] Всего файлов в раздаче - 6:
Front.e05.avi557.20 MB
Front.e06.avi557.06 MB
Front.e04.avi557.06 MB
Front.e03.avi557.12 MB
Front.e02.avi557.34 MB
Front.e01.avi557.04 MB

Показать еще раздачи по запросу фронт:
2019-02-14 U Фронт [01-08 из 08] (2014) WEBRip 720p от Files-x 8.20 GB ↑ 117 ↓ 208
2019-02-14 U Фронт [01-08 из 08] (2014) WEBRip 1080p от Files-x 9.85 GB ↑ 264 ↓ 276
2019-02-14 U Фронт [01-08 из 08] (2014) WEBRip от Files-x 5.42 GB ↑ 130 ↓ 294
2019-02-14 U Фронт [01-08 из 08] (2014) WEBRip от GeneralFilm 1К4.35 GB ↑ 377 ↓ 629
2019-02-14 U Фронт [01х01-08 из 08] (2019) WEBRip-AVC 6.04 GB ↑ 119 ↓ 31
2019-02-14 U Фронт [01-08 из 08] (2014) WEBRip-AVC от Files-x 4.93 GB ↑ 59 ↓ 81
2019-02-14 U Фронт [01-07 из 08] (2014) WEBRip 1080p от Files-x 8.78 GB ↑ 46 ↓ 51

Отзывы
Зарегистрируйтесь чтобы добавить комментарий.
Обратная связь
Copyleft ©