↑↓Torrent.by
Поиск
Логин: Регистрация
Пароль: Восстановить пароль
Загрузка...

Оверлорд / Overlord (2018) BDRip 720p от селезень | Лицензия

Скачать overlord-2018-bdrip-720p-ot-selezen-licenziya.torrent
U Магнитная ссылка Размер: 5.28 GB Раздают: 1599 Качают: 1117 Добавлен: 2019-02-12 18:50:15
Оверлорд / Overlord (2018) BDRip 720p от селезень | Лицензия

Название: Оверлорд
Оригинальное название: Overlord
Год выхода: 2018
Жанр: Ужасы, фантастика, боевик, триллер, детектив, военный
Режиссер: Джулиус Эйвери
В ролях: Джован Адепо, Уайатт Расселл, Матильда Олливье, Йохан Филип Асбек, Джон Магаро, Иэн де Кестекер, Джейкоб Андерсон, Доминик Эпплуайт, Джанни Тофер, Джозеф Куинн, Боким Вудбайн, Эрих Редман, Марк Маккенна, Хейли Кармайкл, Марк Риссман, Мэг Фостер, Сара Финиган, Гюнтер Вюргер, Бен Тавассоли

О фильме: Накануне высадки союзников в Нормандии отряд американских десантников проникают в оккупированный немцами посёлок, чтобы разрушить их радиомачту. Лазутчикам предстоит столкнуться не только с военными, но и с жуткими последствиями нацистских экспериментов.

Страна: США, Канада
Студия: Bad Robot, Paramount Pictures
Продолжительность: 01:49:47
Перевод: Дублированный | Лицензия

Качество: BDRip 720p
Видео: MPEG-4 AVC, 1280x534, 5597 Kbit/s, 23.976 fps
Звук:
Аудио #01: 48 kHz, AC3, 5.1, 640 Kbps | Дублированный | RUS |
Аудио #02: 48 kHz, AC3, 5.1, 640 Kbps | Оригинал |  ENG |
Субтитры: Русские (Forced, full), английские

Релиз:


[+] MI
General
Unique ID                   : 112538994615879609757582998209007803229 (0x54AA38D2A5412DD5B8C2468A7CED5B5D)
Complete name               : D:Video111Overlord.2018.BDRip.720p.seleZen.mkv
Format                      : Matroska
Format version              : Version 4
File size                   : 5.28 GiB
Duration                    : 1 h 49 min
Overall bit rate            : 6 880 kb/s
Movie name                  : Overlord 2018 from селезень
Encoded date                : UTC 2019-02-12 11:55:45
Writing application         : mkvmerge v29.0.0 ('Like It Or Not') 64-bit
Writing library             : libebml v1.3.6 + libmatroska v1.4.9

Video
ID                          : 1
Format                      : AVC
Format/Info                 : Advanced Video Codec
Format profile              : High@L4.1
Format settings             : CABAC / 12 Ref Frames
Format settings, CABAC      : Yes
Format settings, ReFrames   : 12 frames
Codec ID                    : V_MPEG4/ISO/AVC
Duration                    : 1 h 49 min
Bit rate                    : 5 597 kb/s
Width                       : 1 280 pixels
Height                      : 534 pixels
Display aspect ratio        : 2.40:1
Frame rate mode             : Constant
Frame rate                  : 23.976 (24000/1001) FPS
Color space                 : YUV
Chroma subsampling          : 4:2:0
Bit depth                   : 8 bits
Scan type                   : Progressive
Bits/(Pixel*Frame)          : 0.342
Stream size                 : 4.29 GiB (81%)
Title                       : MTeam
Writing library             : x264 core 157 r2938 2b00a84 TnP@MTeam Mod
Encoding settings           : cabac=1 / ref=12 / deblock=1:-3:-3 / analyse=0x3:0x133 / me=umh / subme=10 / psy=1 / psy_rd=1.05:0.00 / mixed_ref=1 / me_range=32 / chroma_me=1 / trellis=2 / 8x8dct=1 / cqm=0 / deadzone=21,11 / fast_pskip=0 / chroma_qp_offset=-2 / threads=12 / lookahead_threads=2 / sliced_threads=0 / nr=0 / decimate=0 / interlaced=0 / bluray_compat=0 / constrained_intra=0 / bframes=8 / b_pyramid=2 / b_adapt=2 / b_bias=0 / direct=3 / weightb=1 / open_gop=0 / weightp=2 / keyint=250 / keyint_min=24 / scenecut=40 / intra_refresh=0 / rc_lookahead=250 / rc=crf / mbtree=0 / crf=17.5 / qcomp=0.60 / qpmin=0 / qpmax=69 / qpstep=4 / vbv_maxrate=62500 / vbv_bufsize=78125 / crf_max=0.0 / nal_hrd=none / filler=0 / ip_ratio=1.30 / pb_ratio=1.20 / aq=3:0.80
Language                    : English
Default                     : Yes
Forced                      : No
Color range                 : Limited
Color primaries             : BT.709
Matrix coefficients         : BT.709

Audio #1
ID                          : 2
Format                      : AC-3
Format/Info                 : Audio Coding 3
Commercial name             : Dolby Digital
Codec ID                    : A_AC3
Duration                    : 1 h 49 min
Bit rate mode               : Constant
Bit rate                    : 640 kb/s
Channel(s)                  : 6 channels
Channel layout              : L R C LFE Ls Rs
Sampling rate               : 48.0 kHz
Frame rate                  : 31.250 FPS (1536 SPF)
Bit depth                   : 16 bits
Compression mode            : Lossy
Stream size                 : 502 MiB (9%)
Title                       : Dub [License]
Language                    : Russian
Service kind                : Complete Main
Default                     : Yes
Forced                      : Yes

Audio #2
ID                          : 3
Format                      : AC-3
Format/Info                 : Audio Coding 3
Commercial name             : Dolby Digital
Codec ID                    : A_AC3
Duration                    : 1 h 49 min
Bit rate mode               : Constant
Bit rate                    : 640 kb/s
Channel(s)                  : 6 channels
Channel layout              : L R C LFE Ls Rs
Sampling rate               : 48.0 kHz
Frame rate                  : 31.250 FPS (1536 SPF)
Bit depth                   : 16 bits
Compression mode            : Lossy
Stream size                 : 503 MiB (9%)
Title                       : Original
Language                    : English
Service kind                : Complete Main
Default                     : No
Forced                      : No

Text #1
ID                          : 4
Format                      : UTF-8
Codec ID                    : S_TEXT/UTF8
Codec ID/Info               : UTF-8 Plain Text
Duration                    : 1 h 22 min
Bit rate                    : 5 b/s
Count of elements           : 94
Stream size                 : 3.22 KiB (0%)
Title                       : Forced
Language                    : Russian
Default                     : Yes
Forced                      : Yes

Text #2
ID                          : 5
Format                      : UTF-8
Codec ID                    : S_TEXT/UTF8
Codec ID/Info               : UTF-8 Plain Text
Duration                    : 1 h 42 min
Bit rate                    : 59 b/s
Count of elements           : 1017
Stream size                 : 45.0 KiB (0%)
Title                       : Full
Language                    : Russian
Default                     : No
Forced                      : No

Text #3
ID                          : 6
Format                      : UTF-8
Codec ID                    : S_TEXT/UTF8
Codec ID/Info               : UTF-8 Plain Text
Duration                    : 1 h 42 min
Bit rate                    : 49 b/s
Count of elements           : 1447
Stream size                 : 37.3 KiB (0%)
Title                       : SDH
Language                    : English
Default                     : No
Forced                      : No

Menu
00:00:00.000                : en:Chapter 01
00:06:31.099                : en:Chapter 02
00:13:47.493                : en:Chapter 03
00:20:31.313                : en:Chapter 04
00:26:27.795                : en:Chapter 05
00:34:08.964                : en:Chapter 06
00:41:10.593                : en:Chapter 07
00:48:41.377                : en:Chapter 08
00:55:50.889                : en:Chapter 09
01:03:21.464                : en:Chapter 10
01:10:28.599                : en:Chapter 11
01:17:21.887                : en:Chapter 12
01:25:47.601                : en:Chapter 13
01:32:19.159                : en:Chapter 14
01:38:48.464                : en:Chapter 15
01:42:39.195                : en:Chapter 16



Скриншоты:
[+] Всего файлов в раздаче - 1:
Overlord.2018.BDRip.720p.seleZen.mkv5.28 GB

Показать еще раздачи по запросу оверлорд:
2019-02-18 U Оверлорд / Overlord (2018) BDRip от HQ-ViDEO | Лицензия 2.18 GB ↑ 39 ↓ 13
2019-02-17 U Оверлорд / Overlord (2018) BDRip-HEVC 1080p от D҉O҉N҉A҉T҉҉1K҉ | Лицензия 5.50 GB ↑ 236 ↓ 70
2019-02-17 U Оверлорд / Overlord (2018) BDRip 720p от HELLYWOOD | Лицензия 4.37 GB ↑ 112 ↓ 72
2019-02-16 U Оверлорд / Overlord (2018) BDRip 1080p от qqss44 & MegaPeer | Лицензия 7.74 GB ↑ 695 ↓ 369
2019-02-16 U Оверлорд / Overlord (2018) BDRip-AVC от HELLYWOOD | Лицензия 2.18 GB ↑ 152 ↓ 57
2019-02-15 U Оверлорд / Overlord (2018) BDRip от MegaPeer | Лицензия 1.46 GB ↑ 183 ↓ 65
2019-02-15 U Оверлорд / Overlord (2018) BDRip от ExKinoRay | Лицензия 1.46 GB ↑ 75 ↓ 18

Отзывы
Зарегистрируйтесь чтобы добавить комментарий.
Обратная связь
Copyleft ©