↑↓Torrent.by
Поиск
Логин: Регистрация
Пароль: Восстановить пароль
Загрузка...

Снежная Королева: Зазеркалье (2018) WEB-DLRip от GeneralFilm | iTunes

Скачать snezhnaya-koroleva-zazerkale-2018-web-dlrip-ot-generalfilm-itunes.torrent
U Магнитная ссылка Размер: 745.05 MB Раздают: 155 Качают: 59 Добавлен: 2019-02-13 06:32:46
Снежная Королева: Зазеркалье (2018) WEB-DLRip от GeneralFilm | iTunes

Оригинальное название: Снежная Королева: Зазеркалье
Год выпуска: 2018
Жанр:  мультфильм, комедия, приключения, семейный, фэнтези
Выпущено: Россия, «Централ Партнершип»
Режиссер: Алексей Цицилин, Роберт Ленс
В ролях: Лина Иванова, Владимир Зайцев, Ольга Зубкова, Никита Прозоровский, Всеволод Кузнецов, Ляйсан Утяшева, Ирина Безрукова, Надежда Ангарская, Николай Быстров

О фильме: Могущественный король Харальд чуть не потерял семью из-за Снежной Королевы. Он находит способ очистить мир от волшебства — все обладатели магических способностей отныне заточены в Зазеркалье. Остановить его и не дать сказке навсегда исчезнуть из нашего мира может только Герда. Ведь ее главная сила не в волшебстве, а вере в добро и дружбу. В новом приключении на помощь Герде придут тролли, пираты и даже сама Снежная Королева.

Качество: WEB-DLRip
Видео: XviD build 73, 720x304 (2.37:1), 25.000 fps, 1112 Kbps (0.203 bit/pixel)
Аудио: 48.0 kHz, MP3 2ch, 128 kbps
Продолжительность: 01:23:21
Перевод: Не требуется
Cубтитры: нет

Релиз:


[+] MediaInfo

General
Complete name               : D:RazdachiSnezhnaja.Koroleva.Zazerkalje.2018.WEB-DLRip.GeneralFilm.avi
Format                      : AVI
Format/Info                 : Audio Video Interleave
File size                   : 745 MiB
Duration                    : 1 h 23 min
Overall bit rate            : 1 250 kb/s
Writing application         : VirtualDubMod 1.5.10.3 | www.virtualdub-fr.org || (build 2550/release)
Writing library             : VirtualDubMod build 2550/release

Video
ID                          : 0
Format                      : MPEG-4 Visual
Format profile              : Advanced Simple@L5
Format settings             : BVOP1 / Custom Matrix
Format settings, BVOP       : 1
Format settings, QPel       : No
Format settings, GMC        : No warppoints
Format settings, Matrix     : Custom
Codec ID                    : XVID
Codec ID/Hint               : XviD
Duration                    : 1 h 23 min
Bit rate                    : 1 112 kb/s
Width                       : 720 pixels
Height                      : 304 pixels
Display aspect ratio        : 2.35:1
Frame rate                  : 25.000 FPS
Color space                 : YUV
Chroma subsampling          : 4:2:0
Bit depth                   : 8 bits
Scan type                   : Progressive
Compression mode            : Lossy
Bits/(Pixel*Frame)          : 0.203
Stream size                 : 663 MiB (89%)
Writing library             : XviD 73

Audio
ID                          : 1
Format                      : MPEG Audio
Format version              : Version 1
Format profile              : Layer 3
Codec ID                    : 55
Codec ID/Hint               : MP3
Duration                    : 1 h 23 min
Bit rate mode               : Constant
Bit rate                    : 128 kb/s
Channel(s)                  : 2 channels
Sampling rate               : 48.0 kHz
Frame rate                  : 41.667 FPS (1152 SPF)
Compression mode            : Lossy
Stream size                 : 76.3 MiB (10%)
Alignment                   : Aligned on interleaves
Interleave, duration        : 40  ms (1.00 video frame)
Interleave, preload duratio : 504  ms
Writing library             : LAME3.99r
Encoding settings           : -m s -V 4 -q 2 -lowpass 17 -b 128



Скриншоты:
[+] Всего файлов в раздаче - 1:
Snezhnaja.Koroleva.Zazerkalje.2018.WEB-DLRip.GeneralFilm.avi745.05 MB

Показать еще раздачи по запросу снежная:
2019-03-03 U Снежная Королева: Зазеркалье (2018) WEB-DLRip-AVC от ExKinoRay | iTunes 1.64 GB ↑ 58 ↓ 12
2019-02-18 U Снежная Королева: Зазеркалье (2018) WEB-DLRip от Scarabey | iTunes 1.39 GB ↑ 72 ↓ 9
2019-02-15 U Снежная Королева: Зазеркалье (2018) WEB-DL 720p | iTunes 2.55 GB ↑ 89 ↓ 15
2019-02-14 U Снежная Королева: Зазеркалье (2018) WEB-DLRip от GeneralFilm | iTunes 1.37 GB ↑ 105 ↓ 23
2019-02-14 U Снежная Королева: Зазеркалье (2018) WEB-DL 1080p | iTunes 1К2.86 GB ↑ 703 ↓ 144
2019-02-13 U Снежная Королева: Зазеркалье (2018) WEB-DLRip от MegaPeer | iTunes 1.46 GB ↑ 541 ↓ 235
2017-12-24 U Сборник - Снежная новогодняя история (1956-2017) [24CD] MP3 от DON Music 1К4.16 GB ↑ 45 ↓ 118

Отзывы
kreizes
Спасибо большое за комп.размер и отличное качество картинки!

Зарегистрируйтесь чтобы добавить комментарий.
Обратная связь
Copyleft ©