↑↓Torrent.by
Поиск
Логин: Регистрация
Пароль: Восстановить пароль
Загрузка...

Операция «Шаровая молния» / Entebbe (2018) BDRip 1080p | Лицензия

Скачать operaciya-sharovaya-molniya-entebbe-2018-bdrip-1080p-licenziya.torrent
U Магнитная ссылка Размер: 12.76 GB Раздают: 130 Качают: 49 Добавлен: 2019-02-13 06:33:01
Операция «Шаровая молния» / Entebbe (2018) BDRip 1080p | Лицензия

«248 пассажиров. 7 дней. Один план спасения»

Название: Операция «Шаровая молния»
Оригинальное название: Entebbe
Год выхода: 2018
Жанр: Триллер, драма, криминал, история
Режиссер: Жозе Падилья
В ролях: Розамунд Пайк, Даниэль Брюль, Эдди Марсан, Бен Шнетцер, Нонсо Анози, Марк Иванир, Дени Меноше, Хуан Пабло Раба, Анхель Бунани, Бронтис Ходоровски

О фильме:
В 1976 году самолет, следовавший из Тель-Авива в Париж, был захвачен террористами и совершил вынужденную посадку в аэропорту Энтеббе в Уганде с целью обмена заложников на осужденных преступников. Дипломатического решения вопроса за 7 дней найти не удалось. Тогда был разработан весьма изобретательный и крайне смелый план спасения…

Страна: Великобритания, США
Студия: Participant Media, Pellikola, Working Title Films
Продолжительность: 01:47:00
Перевод:
     • Профессиональный (полное дублирование) | Лицензия | R5 НД Плэй
     • Профессиональный (многоголосый, закадровый) | HDRezka Studio

Файл
Качество: BDRip 1080p
Формат: MKV
Кодек: MPEG-4 AVC
Видео: 1920x804 (2,40:1), 23.976 fps, MPEG-4 AVC ~ 14.9 Mbps avg, 0.403  bit/pixel
Аудио: AC3, 48 kHz, 6 ch, ~448.00 kbps avg | русский | R5
Аудио: AC3, 48 kHz, 2 ch, ~192.00 kbps avg | русский | HDRezka Studio
Аудио: DTS, 48 kHz, 6 ch, ~1509.00.00 kbps avg | английский | Оригинал

Субтитры: Английские (Full, SDH)
Семпл


[+] Инфо-файл
Общее
Уникальный идентификатор                 : 166206385607520337864428258240070929969 (0x7D0A2F7CDC9D6556FAC2613811AFCE31)
Полное имя                               : Entebbe.2018.1080p.BluRay.DD5.1.x264.Rus.Eng.mkv
Формат                                   : Matroska
Версия формата                           : Version 4 / Version 2
Размер файла                             : 12,8 Гбайт
Продолжительность                        : 1 ч. 47 м.
Общий поток                              : 17,1 Мбит/сек
Название фильма                          : Операция «Шаровая молния» (2018)
Дата кодирования                         : UTC 2019-02-12 11:55:14
Программа кодирования                    : mkvmerge v27.0.0 ('Metropolis') 64-bit
Библиотека кодирования                   : libebml v1.3.6 + libmatroska v1.4.9
Обложка                                  : Yes
Attachments                              : cover.jpg

Видео
Идентификатор                            : 1
Формат                                   : AVC
Формат/Информация                        : Advanced Video Codec
Профиль формата                          : High@L4.1
Настройки формата                        : CABAC / 5 Ref Frames
Параметр CABAC формата                   : Да
Параметр RefFrames формата               : 5 кадров
Идентификатор кодека                     : V_MPEG4/ISO/AVC
Продолжительность                        : 1 ч. 47 м.
Битрейт                                  : 14,9 Мбит/сек
Ширина                                   : 1920 пикселей
Высота                                   : 804 пикселя
Соотношение сторон                       : 2,40:1
Режим частоты кадров                     : Постоянный
Частота кадров                           : 23,976 (24000/1001) кадра/сек
Цветовое пространство                    : YUV
Субдискретизация насыщенности            : 4:2:0
Битовая глубина                          : 8 бит
Тип развёртки                            : Прогрессивная
Бит/(Пиксели*Кадры)                      : 0.403
Размер потока                            : 11,2 Гбайт (87%)
Заголовок                                : DON
Библиотека кодирования                   : x264 core 155 r2867+82 a249126 t_mod_Custom_2 [8-bit@all X86_64]
Настройки программы                      : cabac=1 / ref=5 / deblock=1:-3:-3 / analyse=0x3:0x133 / me=umh / subme=11 / psy=1 / fade_compensate=0.00 / psy_rd=1.05:0.00 / mixed_ref=1 / me_range=32 / chroma_me=1 / trellis=2 / 8x8dct=1 / cqm=0 / deadzone=21,11 / fast_pskip=0 / chroma_qp_offset=-2 / threads=12 / lookahead_threads=2 / sliced_threads=0 / nr=0 / decimate=0 / interlaced=0 / bluray_compat=0 / constrained_intra=0 / fgo=0 / bframes=9 / b_pyramid=2 / b_adapt=2 / b_bias=0 / direct=3 / weightb=1 / open_gop=0 / weightp=2 / keyint=250 / keyint_min=23 / scenecut=40 / intra_refresh=0 / rc_lookahead=60 / rc=crf / mbtree=0 / crf=16.6000 / qcomp=0.65 / qpmin=0:0:0 / qpmax=69:69:69 / qpstep=4 / vbv_maxrate=62500 / vbv_bufsize=78125 / crf_max=0.0 / nal_hrd=none / filler=0 / ip_ratio=1.30 / pb_ratio=1.20 / aq=3:0.80 / aq-sensitivity=10.00 / aq-factor=1.00:1.00:1.00 / aq2=0 / aq3=0 / zones=25,310,crf=13.6/46680,47074,crf=15.6/78985,79033,crf=14.6/79337,79462,crf=15.6/79820,79871,crf=14.6/126430,127002,crf=13/130654,131171,crf=16
Язык                                     : English
Default                                  : Да
Forced                                   : Нет
Цветовой диапазон                        : Limited
Коэффициенты матрицы                     : BT.709

Аудио #1
Идентификатор                            : 2
Формат                                   : AC-3
Формат/Информация                        : Audio Coding 3
Идентификатор кодека                     : A_AC3
Продолжительность                        : 1 ч. 46 м.
Вид битрейта                             : Постоянный
Битрейт                                  : 448 Кбит/сек
Каналы                                   : 6 каналов
Расположение каналов                     : Front: L C R, Side: L R, LFE
Частота                                  : 48,0 КГц
Частота кадров                           : 31,250 кадров/сек (1536 SPF)
Битовая глубина                          : 16 бит
Метод сжатия                             : С потерями
Размер потока                            : 342 Мбайт (3%)
Заголовок                                : R5 НД Плэй
Язык                                     : Russian
Default                                  : Да
Forced                                   : Нет

Аудио #2
Идентификатор                            : 3
Формат                                   : AC-3
Формат/Информация                        : Audio Coding 3
Идентификатор кодека                     : A_AC3
Продолжительность                        : 1 ч. 46 м.
Вид битрейта                             : Постоянный
Битрейт                                  : 192 Кбит/сек
Каналы                                   : 2 канала
Расположение каналов                     : Front: L R
Частота                                  : 48,0 КГц
Частота кадров                           : 31,250 кадров/сек (1536 SPF)
Битовая глубина                          : 16 бит
Метод сжатия                             : С потерями
Размер потока                            : 147 Мбайт (1%)
Заголовок                                : HDRezka Studio
Язык                                     : Russian
Default                                  : Нет
Forced                                   : Нет

Аудио #3
Идентификатор                            : 4
Формат                                   : DTS
Формат/Информация                        : Digital Theater Systems
Идентификатор кодека                     : A_DTS
Продолжительность                        : 1 ч. 47 м.
Вид битрейта                             : Постоянный
Битрейт                                  : 1509 Кбит/сек
Каналы                                   : 6 каналов
Расположение каналов                     : Front: L C R, Side: L R, LFE
Частота                                  : 48,0 КГц
Частота кадров                           : 93,750 кадра/сек (512 SPF)
Битовая глубина                          : 24 бит
Метод сжатия                             : С потерями
Размер потока                            : 1,13 Гбайт (9%)
Язык                                     : English
Default                                  : Нет
Forced                                   : Нет

Текст #1
Идентификатор                            : 5
Формат                                   : UTF-8
Идентификатор кодека                     : S_TEXT/UTF8
Идентификатор кодека/Информация          : UTF-8 Plain Text
Продолжительность                        : 1 ч. 32 м.
Битрейт                                  : 48 бит/сек
ElementCount                             : 971
Размер потока                            : 32,7 Кбайт (0%)
Заголовок                                : Full
Язык                                     : English
Default                                  : Нет
Forced                                   : Нет

Текст #2
Идентификатор                            : 6
Формат                                   : UTF-8
Идентификатор кодека                     : S_TEXT/UTF8
Идентификатор кодека/Информация          : UTF-8 Plain Text
Продолжительность                        : 1 ч. 38 м.
Битрейт                                  : 50 бит/сек
ElementCount                             : 1088
Размер потока                            : 36,5 Кбайт (0%)
Заголовок                                : SDH
Язык                                     : English
Default                                  : Нет
Forced                                   : Нет

Меню
00:00:00.000                             : en:00:00:00.000
00:02:32.569                             : en:00:02:32.569
00:06:17.669                             : en:00:06:17.669
00:12:00.261                             : en:00:12:00.261
00:19:00.431                             : en:00:19:00.431
00:24:11.575                             : en:00:24:11.575
00:28:10.606                             : en:00:28:10.606
00:32:43.420                             : en:00:32:43.420
00:38:10.413                             : en:00:38:10.413
00:44:32.545                             : en:00:44:32.545
00:49:31.468                             : en:00:49:31.468
00:53:06.016                             : en:00:53:06.016
00:58:22.708                             : en:00:58:22.708
01:04:04.549                             : en:01:04:04.549
01:08:07.625                             : en:01:08:07.625
01:16:13.986                             : en:01:16:13.986
01:21:11.617                             : en:01:21:11.617
01:28:57.999                             : en:01:28:57.999
01:37:31.846                             : en:01:37:31.846
01:39:09.902                             : en:01:39:09.902



Скриншоты:
[+] Всего файлов в раздаче - 1:
Entebbe.2018.1080p.BluRay.DD5.1.x264.Rus.Eng.mkv12.76 GB

Показать еще раздачи по запросу операция:
2019-07-13 U Операция «Колибри» / The Hummingbird Project (2018) BDRip 720p от k.e.n & MegaPeer | P 4.03 GB ↑ 79 ↓ 61
2019-07-03 U Операция «Колибри» / The Hummingbird Project (2018) BDRip-AVC от OlLanDGroup | P 2.21 GB ↑ 73 ↓ 15
2019-07-02 U Операция «Колибри» / The Hummingbird Project (2018) BDRemux 1080p от селезень | P 18.82 GB ↑ 50 ↓ 23
2019-07-02 U Операция «Колибри» / The Hummingbird Project (2018) BDRip от MegaPeer | СВ Студия 1.46 GB ↑ 92 ↓ 17
2019-06-18 U Операция «Колибри» / The Hummingbird Project (2018) WEB-DLRip от Scarabey | СВ Студия 1.45 GB ↑ 58 ↓ 21
2019-06-17 U Операция «Колибри» / The Hummingbird Project (2018) WEB-DLRip-AVC от OlLanDGroup | P 1.46 GB ↑ 132 ↓ 14
2019-06-17 U Операция «Колибри» / The Hummingbird Project (2018) WEB-DLRip-AVC | СВ Студия 742.76 MB ↑ 62 ↓ 12

Отзывы
Зарегистрируйтесь чтобы добавить комментарий.
Обратная связь
Copyleft ©