↑↓Torrent.by
Поиск
Логин: Регистрация
Пароль: Восстановить пароль
Загрузка...

Мама не горюй (1997) DVDRip-AVC от KORSAR

Скачать mama-ne-goryuy-1997-dvdrip-avc-ot-korsar.torrent
U Магнитная ссылка Размер: 1.43 GB Раздают: 42 Качают: 9 Добавлен: 2019-02-13 06:33:23
Мама не горюй (1997) DVDRip-AVC от KORSAR

Мама не горюй

Страна: Россия
Жанр:  Комедия, криминал
Год выпуска: 1997
Продолжительность: 01:21:57
Перевод: Не требуется

Режиссер: Максим Пежемский
В ролях: Гоша Куценко, Евгений Сидихин, Сергей Векслер, Валерий Приемыхов, Нина Русланова,
Александр Баширов, Елена Шевченко, Иван Охлобыстин, Николай Чиндяйкин, Сергей Колтаков, Сергей Данилевич,
Маша Машкова, Иван Бортник, Андрей Панин, Маша Бакланова, Олеся Судзиловская, Дмитрий Петухов, Виктор Вержбицкий, Игорь Юраш...

Описание: Была свадьба. Гуляли реальные люди. Чисто конкретно пели-плясали, отдыхали по-человечески.
И развели их на драку. Морячок взял да и огрел стулом Туриста. Чтоб к невесте не приставал. А Турист был серьезный мужчина.
И потому сразу образовались такие разборки, что мама не горюй! Морячок с собственной свадьбы сделал ноги,
и наутро его уже искали милиция, киллеры, родственники невесты, друзья Туриста и разный прочий любопытный народ…

Кодек: х264
Качество: DVDRip-AVC
Видео: MPEG-4 AVC, 2300 Кбит/с, 692х476@738x476, 25 fps,
Аудио: АС3, 2 сh, 192 Кбит/с
Субтитры: Нет
Главы: Есть


[+] Инфо файл

x264 [info]: frame I:639 Avg QP:16.03 size: 57869
x264 [info]: frame P:26658 Avg QP:18.51 size: 26761
x264 [info]: frame B:95644 Avg QP:20.66 size: 6935

Общее
Уникальный идентификатор : 190129759050364211349849940920204764941 (0x8F09A8DD57BFD3639D5FA2F93213A70D)
Полное имя : H:Наше современное киноМама не горюй 1997_DVDRip-AVC_KORSAR.mkv
Формат : Matroska
Версия формата : Version 2
Размер файла : 1,43 Гбайт
Продолжительность : 1 ч. 21 м.
Общий поток : 2494 Кбит/сек
Дата кодирования : UTC 2019-02-11 00:18:57
Программа кодирования : mkvmerge v5.8.0 ('No Sleep / Pillow') built on Sep 2 2012 15:37:04
Библиотека кодирования : libebml v1.2.3 + libmatroska v1.3.0

Видео
Идентификатор : 1
Формат : AVC
Формат/Информация : Advanced Video Codec
Профиль формата : High@L4.1
Настройки формата : CABAC / 15 Ref Frames
Параметр CABAC формата : Да
Параметр RefFrames формата : 15 кадров
Идентификатор кодека : V_MPEG4/ISO/AVC
Продолжительность : 1 ч. 21 м.
Битрейт : 2300 Кбит/сек
Ширина : 692 пикселя
Высота : 476 пикселей
Соотношение сторон : 16:10
Соотношение сторон в оригинале : 16:10
Режим частоты кадров : Постоянный
Частота кадров : 25,000 кадров/сек
Цветовое пространство : YUV
Субдискретизация насыщенности : 4:2:0
Битовая глубина : 8 бит
Тип развёртки : Прогрессивная
Бит/(Пиксели*Кадры) : 0.279
Размер потока : 1,29 Гбайт (90%)
Библиотека кодирования : x264 core 152 r2851kMod ba24899
Настройки программы : cabac=1 / ref=15 / deblock=1:-2:-1 / analyse=0x3:0x133 / me=umh / subme=11 / psy=1 / fade_compensate=0.00 / psy_rd=1.05:0.10 / mixed_ref=1 / me_range=48 / chroma_me=1 / trellis=2 / 8x8dct=1 / cqm=0 / deadzone=21,11 / fast_pskip=0 / chroma_qp_offset=-3 / threads=12 / lookahead_threads=3 / sliced_threads=0 / nr=0 / decimate=0 / interlaced=0 / bluray_compat=0 / constrained_intra=0 / bframes=10 / b_pyramid=2 / b_adapt=2 / b_bias=0 / direct=3 / weightb=1 / open_gop=0 / weightp=2 / keyint=250 / keyint_min=25 / scenecut=40 / intra_refresh=0 / rc_lookahead=40 / rc=2pass / mbtree=0 / bitrate=2300 / ratetol=1.0 / qcomp=0.60 / qpmin=0 / qpmax=39 / qpstep=4 / cplxblur=20.0 / qblur=0.5 / vbv_maxrate=50000 / vbv_bufsize=62500 / nal_hrd=none / filler=0 / ip_ratio=1.25 / pb_ratio=1.30 / aq=1:1.00
Язык : English
Default : Да
Forced : Нет
Цветовой диапазон : Limited
Основные цвета : BT.709
Характеристики трансфера : BT.709
Коэффициенты матрицы : BT.709

Аудио
Идентификатор : 2
Формат : AC-3
Формат/Информация : Audio Coding 3
Параметр Endianness формата : Big
Идентификатор кодека : A_AC3
Продолжительность : 1 ч. 21 м.
Вид битрейта : Постоянный
Битрейт : 192 Кбит/сек
Каналы : 2 канала
Расположение каналов : Front: L R
Частота : 48,0 КГц
Частота кадров : 31,250 кадров/сек (1536 SPF)
Битовая глубина : 16 бит
Метод сжатия : С потерями
Размер потока : 113 Мбайт (8%)
Язык : Russian
Default : Да
Forced : Нет

Меню
00:00:00.000 : en:Chapter 1
00:04:43.680 : en:Chapter 2
00:12:11.520 : en:Chapter 3
00:17:20.640 : en:Chapter 4
00:26:31.800 : en:Chapter 5
00:32:37.800 : en:Chapter 6
00:38:23.520 : en:Chapter 7
00:46:35.880 : en:Chapter 8
00:55:48.120 : en:Chapter 9
01:06:53.520 : en:Chapter 10
01:12:40.320 : en:Chapter 11
01:15:40.800 : en:Chapter 12




Скриншоты:
[+] Всего файлов в раздаче - 1:
Мама не горюй 1997_DVDRip-AVC_KORSAR.mkv1.43 GB

Показать еще раздачи по запросу мама:
Сегодня U Мама Лора [01-12 из 16] (2017) SATRip 8.10 GB ↑ 92 ↓ 46
Вчера U Мама Лора (Больше жизни) [01х01-12 из 16] (2019) SATRip-AVC 7.64 GB ↑ 1 ↓ 1
2019-05-15 U Мама Лора [01-04 из 16] (2017) SATRip 2.72 GB ↑ 112 ↓ 94
2018-11-25 U Мама [01-16 из 16] (2018) WEB-DLRip от Files-x 9.02 GB ↑ 48 ↓ 58
2018-11-24 U Мама [01-16 из 16] (2018) WEB-DLRip-AVC от Files-x 9.51 GB ↑ 142 ↓ 145
2018-08-22 U Мама навсегда (2018) WEB-DLRip от MegaPeer 1.19 GB ↑ 89 ↓ 36
2018-08-20 U Мама навсегда (2018) WEB-DL 1080р 2.90 GB ↑ 194 ↓ 115

Отзывы
Зарегистрируйтесь чтобы добавить комментарий.
Обратная связь
Copyleft ©