↑↓Torrent.by
Поиск
Логин: Регистрация
Пароль: Восстановить пароль
Загрузка...

Папа (2004) DVDRip-AVC от KORSAR

Скачать papa-2004-dvdrip-avc-ot-korsar.torrent
U Магнитная ссылка Размер: 2.58 GB Раздают: 37 Качают: 19 Добавлен: 2019-02-13 10:30:06
Папа (2004) DVDRip-AVC от KORSAR

Папа

Страна: Россия
Производство: Компания «ТрансМашХолдинг», НТВ-Профит, Продюсерская фирма Игоря Толстунова
Жанр:  драма
Год выпуска: 2004
Продолжительность: 01:34:07
Перевод: Не требуется

Режиссер: Владимир Машков
В ролях: Роман Артемьев, Владимир Машков, Егор Бероев, Андрей Розендент, Ольга Красько, Лидия Пахомова, Ольга Мирошникова, Ксения Беспалова, Сергей Дрейден, Ксения Глинка, Анатолий Васильев, Андрей Кузичев, Андрей Смоляков, Сергей Угрюмов, Артур Смольянинов, Елена Коренева

О фильме:
Фильм снят по мотивам одной из самых известных в мире пьес - пьесы Александра Галича "Матросская тишина"... История любви. Предательства. Прощения... 30-е годы. Талантливый юный скрипач приезжает учиться в Москву. Здесь он встречает свою любовь, за несколько счастливых лет к нему приходят успех и слава. Но все это время он должен скрывать свое происхождение. Когда тайное становится явным, ему нужно всего лишь... отказаться от своего отца. Или потерять все.

Файл
Качество: DVDRip (AVC)
Видео: MPEG-4 AVC, 716x548@1018x548, 25 fps, 3482 Кбит/с
Аудио: Русский, AC3, 6 ch, 448 Кбит/с
Cубтитры: нет
Навигация по главам: есть

Релиз от: Cthulhu


[+] Mediainfo
x264 [info]: frame I:1188  Avg QP:18.01  size: 72386
x264 [info]: frame P:32153 Avg QP:19.59  size: 35445
x264 [info]: frame B:107844 Avg QP:21.47  size: 11426
x264 [info]: consecutive B-frames:  2.2%  4.0% 10.2% 21.8% 15.0% 41.4%  3.2%  0.8%  0.7%  0.2%  0.1%  0.4%  0.1%

General
Unique ID                                : 106511010770662558647078899103559889772 (0x50214645F5F6C896335C5A150544B36C)
Complete name                            : S:FILMSПапа (2004) DVDRip-AVC - KORSAR.mkv
Format                                   : Matroska
Format version                           : Version 4 / Version 2
File size                                : 2.58 GiB
Duration                                 : 1 h 34 min
Overall bit rate                         : 3 932 kb/s
Movie name                               : Папа (2004)_rip_by_Cthulhu
Encoded date                             : UTC 2019-02-10 19:01:11
Writing application                      : mkvmerge v28.2.0 ('The Awakening') 64-bit
Writing library                          : libebml v1.3.6 + libmatroska v1.4.9
Cover                                    : Yes
Attachments                              : cover2.jpg

Video
ID                                       : 1
Format                                   : AVC
Format/Info                              : Advanced Video Codec
Format profile                           : High@L4.1
Format settings, CABAC                   : Yes
Format settings, RefFrames               : 14 frames
Codec ID                                 : V_MPEG4/ISO/AVC
Duration                                 : 1 h 34 min
Bit rate                                 : 3 482 kb/s
Width                                    : 716 pixels
Height                                   : 548 pixels
Display aspect ratio                     : 1.85:1
Frame rate mode                          : Constant
Frame rate                               : 25.000 FPS
Color space                              : YUV
Chroma subsampling                       : 4:2:0
Bit depth                                : 8 bits
Scan type                                : Progressive
Bits/(Pixel*Frame)                       : 0.355
Stream size                              : 2.29 GiB (89%)
Writing library                          : x264 core 152 r2851kMod ba24899
Encoding settings                        : cabac=1 / ref=14 / deblock=1:-1:-1 / analyse=0x3:0x133 / me=umh / subme=11 / psy=1 / fade_compensate=0.00 / psy_rd=1.00:0.00 / mixed_ref=1 / me_range=48 / chroma_me=1 / trellis=2 / 8x8dct=1 / cqm=0 / deadzone=21,11 / fast_pskip=1 / chroma_qp_offset=-2 / threads=17 / lookahead_threads=4 / sliced_threads=0 / nr=0 / decimate=1 / interlaced=0 / bluray_compat=0 / constrained_intra=0 / bframes=12 / b_pyramid=2 / b_adapt=2 / b_bias=0 / direct=3 / weightb=1 / open_gop=0 / weightp=2 / keyint=250 / keyint_min=25 / scenecut=40 / intra_refresh=0 / rc=crf / mbtree=0 / crf=17.5000 / qcomp=0.60 / qpmin=0 / qpmax=39 / qpstep=4 / ip_ratio=1.40 / pb_ratio=1.30 / aq=3:1.00
Language                                 : Russian
Default                                  : Yes
Forced                                   : No
Color range                              : Limited
Color primaries                          : BT.601 PAL
Transfer characteristics                 : BT.470 System B, BT.470 System G
Matrix coefficients                      : BT.601

Audio
ID                                       : 2
Format                                   : AC-3
Format/Info                              : Audio Coding 3
Mode extension                           : CM (complete main)
Format settings, Endianness              : Big
Codec ID                                 : A_AC3
Duration                                 : 1 h 34 min
Bit rate mode                            : Constant
Bit rate                                 : 448 kb/s
Channel(s)                               : 6 channels
Channel positions                        : Front: L C R, Side: L R, LFE
Sampling rate                            : 48.0 kHz
Frame rate                               : 31.250 FPS (1536 spf)
Compression mode                         : Lossy
Stream size                              : 302 MiB (11%)
Language                                 : Russian
Default                                  : Yes
Forced                                   : No

Menu
00:00:00.000                             : en:Chapter 1
00:07:51.000                             : en:Chapter 2
00:13:59.400                             : en:Chapter 3
00:21:03.240                             : en:Chapter 4
00:27:32.280                             : en:Chapter 5
00:37:14.040                             : en:Chapter 6
00:43:26.160                             : en:Chapter 7
00:52:02.280                             : en:Chapter 8
00:59:13.320                             : en:Chapter 9
01:07:43.680                             : en:Chapter 10
01:13:17.520                             : en:Chapter 11
01:20:44.400                             : en:Chapter 12



Скриншоты:
[+] Всего файлов в раздаче - 1:
Папа (2004) DVDRip-AVC - KORSAR.mkv2.58 GB

Показать еще раздачи по запросу папа:
2019-01-03 U Гаражный папа [01-02 из 02] (2018) WEBRip 1080p от ExKinoRay 4.18 GB ↑ 125 ↓ 59
2019-01-03 U Гаражный папа [01-02 из 02] (2018) WEBRip от Files-x 1.22 GB ↑ 73 ↓ 30
2019-01-03 U Гаражный папа [01-02 из 02] (2018) WEBRip-AVC от Files-x 1.49 GB ↑ 101 ↓ 61
2019-01-03 U Гаражный папа [01-02 из 02] (2018) WEBRip от GeneralFilm 1.09 GB ↑ 152 ↓ 74
2018-05-04 U Молодой Папа (1 сезон) (2016) NewStudio торрент 4.20 GB ↑ 15 ↓ 1
2018-05-01 U Кто наш папа, чувак? / Father Figures (2017) HDRip от MegaPeer | Лицензия 747.44 MB ↑ 73 ↓ 6
2018-05-01 U Кто наш папа, чувак? / Father Figures (2017) BDRip от MegaPeer | Лицензия 1.46 GB ↑ 322 ↓ 12

Отзывы
magadan1212
Когда первый раз смотрел, чуть сердце не лопнуло во время просмотра. Настоящее кино!

Зарегистрируйтесь чтобы добавить комментарий.
Обратная связь
Copyleft ©